[B]Chương Trình Ca Nhạc
Thúy Nga Paris By Night 111 "S"

BluRay.HD720p - AUDIO AC3.5.1 Và AC3 2.0






1. Phần Mở Đầu
2. Tình Hoài Hương (Thiên Tôn - Trần Thái Hòa - Đình Bảo
Hạ Vy - Tóc Tiên - Mai Thiên Vân - Ngọc Anh - Như Quỳnh - Quỳnh Vi)
3. Lời Mở Đầu Nguyễn Ngọc Ngạn - Kỳ Duyên
4. LK Sa Mạc Tình Yêu & Giấc Mơ Sa Mạc - Don Hồ & Diễm Sương
5. Sương Lạnh Chiều Đông - Hương Lan
& Chuyến Đi Về Sáng - Giang Tử
6. Phiến Đá Sầu - Đình Bảo
& Vết Thương Sỏi Đá - Thế Sơn
7. Đời Ca Sĩ - Ánh Minh
& Tiền - Justin Nguyễn
8. Đố Vui Khán Giả
9. Yêu Một Mình - Khánh Lâm
& Hoa Sứ Nhà Nàng Thái Châu
10. Khói Sương Mong Manh - Lam Anh & Bằng Kiều
11. Đố Vui Khán Giả
12. Vì Sao Ta Yêu Nhau - Lương Tùng Quang & Quỳnh Vi

Liên Khúc 3 Dòng Sông:

13. Trở Về Dòng Sông Tuổi Thơ - Thu Phương
14. Thôn Trăng - Như Quỳnh
15. Trăng Phương Nam - Hạ Vy & Hương Thủy
16. Đố Vui Khán Giả
17. Mộng Sầu - Hương Giang & Trần Thái Hòa
18. Chuyện Vườn Sầu Riêng - Mai Thiên Vân & Tuấn Quỳnh
19. Sân Khấu Cuộc Đời - Trịnh Lam & Như Loan
20. Hài Kịch “Xàm Xí” Hoài Linh - Chí Tài - Việt Hương - Thúy Nga
21. Sexy, Sexy - Anh Tú
22. Say Tình - Kỳ Phương Uyên




[QUOTE]


[SPOILER]Hiển thị nội dung ẩnGeneral
Unique ID : 229385867007473130870777161239695701128 (0xAC921C6B1428F734A01D4577255BB488)
Complete name : D:\PBN\111_Paris.By.Night.S.BluRay.HD720p.AC3.5.1& 2.0.Coti.mkv
Format : Matroska
Format version : Version 1
File size : 14.8 GiB
Duration : 5h 5mn
Overall bit rate : 6 951 Kbps
Encoded date : UTC 2014-08-25 09:01:00
Encoded name : @Coti
Writing application : mkvmerge v2.2.0 ('Turn It On Again') built on Mar 4 2008 12:58:26
Writing library : libebml v0.7.7 + libmatroska v0.8.1

Video
ID : 1
Format : AVC
Format/Info : Advanced Video Codec
Format profile : Main@L4.0
Format settings, CABAC : Yes
Format settings, ReFrames : 4 frames
Codec ID : V_MPEG4/ISO/AVC
Duration : 5h 5mn
Bit rate : 6 000 Kbps
Width : 1 280 pixels
Height : 720 pixels
Display aspect ratio : 16:9
Frame rate mode : Constant
Frame rate : 27.223 fps
Color space : YUV
Chroma subsampling : 4:2:0
Bit depth : 8 bits
Scan type : Progressive
Bits/(Pixel*Frame) : 0.239
Stream size : 12.6 GiB (85%)
Writing library : x264 core 130 r2273 b3065e6
Encoding settings : cabac=1 / ref=1 / deblock=1:0:0 / analyse=0x1:0x111 / me=hex / subme=2 / psy=1 / psy_rd=1.00:0.00 / mixed_ref=0 / me_range=16 / chroma_me=1 / trellis=0 / 8x8dct=0 / cqm=0 / deadzone=21,11 / fast_pskip=1 / chroma_qp_offset=0 / threads=6 / lookahead_threads=2 / sliced_threads=0 / nr=0 / decimate=1 / interlaced=0 / bluray_compat=0 / constrained_intra=0 / bframes=3 / b_pyramid=2 / b_adapt=1 / b_bias=0 / direct=1 / weightb=1 / open_gop=0 / weightp=1 / keyint=300 / keyint_min=30 / scenecut=40 / intra_refresh=0 / rc_lookahead=10 / rc=abr / mbtree=1 / bitrate=6000 / ratetol=1.0 / qcomp=0.60 / qpmin=0 / qpmax=69 / qpstep=4 / vbv_maxrate=20000 / vbv_bufsize=25000 / nal_hrd=none / ip_ratio=1.40 / aq=1:1.00
Language : English
Default : Yes
Forced : No
Color primaries : BT.709
Transfer characteristics : BT.709
Matrix coefficients : BT.709

Audio #1
ID : 2
Format : AC-3
Format/Info : Audio Coding 3
Mode extension : CM (complete main)
Format settings, Endianness : Big
Codec ID : A_AC3
Duration : 5h 5mn
Bit rate mode : Constant
Bit rate : 448 Kbps
Channel(s) : 2 channels
Channel positions : Front: L R
Sampling rate : 48.0 KHz
Bit depth : 16 bits
Compression mode : Lossy
Stream size : 979 MiB (6%)
Default : Yes
Forced : No

Audio #2
ID : 3
Format : AC-3
Format/Info : Audio Coding 3
Mode extension : CM (complete main)
Format settings, Endianness : Big
Codec ID : A_AC3
Duration : 5h 5mn
Bit rate mode : Constant
Bit rate : 448 Kbps
Channel(s) : 6 channels
Channel positions : Front: L C R, Side: L R, LFE
Sampling rate : 48.0 KHz
Bit depth : 16 bits
Compression mode : Lossy
Stream size : 979 MiB (6%)
Title : 3/2+1
Language : English
Default : No
Forced : No

Menu #1
00:00:00.000 : :Chapter 1
00:01:07.301 : :Chapter 2
00:09:54.828 : :Chapter 3
00:17:38.824 : :Chapter 4
00:28:24.203 : :Chapter 5
00:37:42.761 : :Chapter 6
00:46:59.150 : :Chapter 7
00:54:26.764 : :Chapter 8
01:02:43.827 : :Chapter 9
01:10:23.286 : :Chapter 10
01:16:23.479 : :Chapter 11
01:24:58.994 : :Chapter 12
01:34:01.870 : :Chapter 13
01:39:30.665 : :Chapter 14
01:44:13.380 : :Chapter 15
01:48:56.764 : :Chapter 16
02:00:24.384 : :Chapter 17
02:09:58.457 : :Chapter 18
02:17:03.215 : :Chapter 19
02:25:29.854 : :Chapter 20
03:01:26.342 : :Chapter 21
03:04:53.516 : :Chapter 22
03:10:49.004 : :Chapter 23
03:19:25.220 : :Chapter 24
03:23:45.747 : :Chapter 25
03:27:52.694 : :Chapter 26
03:32:31.172 : :Chapter 27
03:42:19.293 : :Chapter 28
03:50:46.633 : :Chapter 29
03:59:33.492 : :Chapter 30
04:06:56.669 : :Chapter 31
04:11:47.526 : :Chapter 32
04:17:10.215 : :Chapter 33
04:22:12.050 : :Chapter 34
04:32:02.173 : :Chapter 35
04:38:12.042 : :Chapter 36
04:43:02.232 : :Chapter 37
04:48:58.588 : :Chapter 38
04:56:44.487 : :Chapter 39
04:57:26.696 : :Chapter 40
[/SPOILER]