Paris by Night: Live Show Hài Thúy Nga - Xin Lỗi Em Chỉ Là Con Quỷ 2015 NTSC DVDRip DD2.0 x264





Disc 1
01. Clip "Nhật Ký Thúy Nga"
02. Anh Thì Không - Thúy Nga, Daniel Phú
03. Lời mở đầu - MC Dũng Taylor, Michael
04. Con Gái Bây Giờ & Tóc Em Đuôi Gà - Trung Dũng
05. Clip "Á Hậu Dạo Phố"
06. Hài kịch "Tại Sao Bị Đánh" - Văn Ruy, Calvin Hiệp, Minh Dũng, Thúy Nga
07. Con Đường Màu Xanh - Trịnh Nam Sơn
08. Chị Tôi - Thúy An
09. Mẹ Tôi - Leon Vũ, Andy Thái
10. Clip "Tập Quán"
11. Hài Kịch "Bà Tôi" - Bé Tí, Vũ Quang Trung, Nguyên Khoa, Thúy Nga

Disc 2
01. Ngày Mai Nắng Lên, Anh Sẽ Về - Hoàng Anh Khang
02. Người Yêu Cô Đơn - Tuấn Vũ
03. Clip "Sâm Cô Đơn"
04. Hài Kịch "Cặp Đôi Hoàn Cảnh" - Minh Nhí, Văn Ruy, Minh Dũng, Leon Vũ, Mỹ Ngân, Nguyên Khoa, Thúy Nga
05. Lâu Đài Tình Ái - Châu Tuấn, Mai Vy
06. Siết Chặt Bàn Tay - Hương Lan
07. Clip "Hâm Nống"
08. Hài Kịch "Đêm Kinh Hoàng" - Bảo Quốc, Chí Tài, Trang Thanh Lan, Hữu Nghĩa, Thúy Nga
09. Người Về Từ Lòng Đất - Trizzie Phương Trinh, Trung Thành
10. Kết Chào "Tôi Là Thúy Nga"



Mã:
MEDIAINFO
\Live.Show.Hai.Thuy.Nga-Xin.Loi.Em.Chi.La.Con.Quy.2015.NTSC.DVDRip.DD2.0.x264.Disc1.mkv
Format                      : Matroska
Format version              : Version 4 / Version 2
File size                   : 2.56 GiB
Duration                    : 1h 51mn
Overall bit rate            : 3 296 Kbps
Encoded date                : UTC 2015-02-04 02:40:20
Writing application         : mkvmerge v7.5.0 ('Glass Culture') 64bit built on Jan  4 2015 16:48:44
Writing library             : libebml v1.3.1 + libmatroska v1.4.2
DURATION                    : 01:51:10.016000000
NUMBER_OF_FRAMES            : 208438
NUMBER_OF_BYTES             : 373520896
_STATISTICS_WRITING_APP     : mkvmerge v7.5.0 ('Glass Culture') 64bit built on Jan  4 2015 16:48:44
_STATISTICS_WRITING_DATE_UT : 2015-02-04 02:40:20
_STATISTICS_TAGS            : BPS DURATION NUMBER_OF_FRAMES NUMBER_OF_BYTES

Video
ID                          : 1
Format                      : AVC
Format/Info                 : Advanced Video Codec
Format profile              : High@L3.1
Format settings, CABAC      : Yes
Format settings, ReFrames   : 13 frames
Codec ID                    : V_MPEG4/ISO/AVC
Duration                    : 1h 51mn
Bit rate                    : 2 782 Kbps
Width                       : 720 pixels
Height                      : 480 pixels
Display aspect ratio        : 16:9
Frame rate mode             : Constant
Frame rate                  : 29.970 fps
Standard                    : NTSC
Color space                 : YUV
Chroma subsampling          : 4:2:0
Bit depth                   : 8 bits
Scan type                   : Progressive
Bits/(Pixel*Frame)          : 0.269
Stream size                 : 2.16 GiB (84%)
Title                       : Live Show Hài Thúy Nga - Xin Lỗi Em Chỉ Là Con Quỷ | 2015 |
Writing library             : x264 core 133 r2334 a3ac64b
Encoding settings           : cabac=1 / ref=13 / deblock=1:-1:-1 / analyse=0x3:0x133 / me=umh / subme=10 / psy=1 / psy_rd=1.05:0.00 / mixed_ref=1 / me_range=24 / chroma_me=1 / trellis=2 / 8x8dct=1 / cqm=0 / deadzone=21,11 / fast_pskip=0 / chroma_qp_offset=-2 / threads=12 / lookahead_threads=2 / sliced_threads=0 / nr=0 / decimate=0 / interlaced=0 / bluray_compat=0 / constrained_intra=0 / bframes=9 / b_pyramid=2 / b_adapt=2 / b_bias=0 / direct=3 / weightb=1 / open_gop=0 / weightp=2 / keyint=250 / keyint_min=25 / scenecut=40 / intra_refresh=0 / rc=crf / mbtree=0 / crf=18.6 / qcomp=0.75 / qpmin=0 / qpmax=69 / qpstep=4 / ip_ratio=1.30 / pb_ratio=1.20 / aq=1:0.80
Language                    : English
Default                     : Yes
Forced                      : No
DURATION                    : 01:51:09.996000000
NUMBER_OF_FRAMES            : 199900
NUMBER_OF_BYTES             : 2372653099
_STATISTICS_WRITING_APP     : mkvmerge v7.5.0 ('Glass Culture') 64bit built on Jan  4 2015 16:48:44
_STATISTICS_WRITING_DATE_UT : 2015-02-04 02:40:20
_STATISTICS_TAGS            : BPS DURATION NUMBER_OF_FRAMES NUMBER_OF_BYTES

Audio
ID                          : 2
Format                      : AC-3
Format/Info                 : Audio Coding 3
Mode extension              : CM (complete main)
Format settings, Endianness : Big
Codec ID                    : A_AC3
Duration                    : 1h 51mn
Bit rate mode               : Constant
Bit rate                    : 448 Kbps
Channel(s)                  : 2 channels
Channel positions           : Front: L R
Sampling rate               : 48.0 KHz
Bit depth                   : 16 bits
Compression mode            : Lossy
Stream size                 : 356 MiB (14%)
Title                       : AC-3 2.0 @ 448 Kbps
Language                    : Vietnamese
Default                     : Yes
Forced                      : No

Menu
00:00:00.000                : vi:01. Live Show Hài Thúy Nga - Xin Lỗi Em Chỉ Là Con Quỷ
00:00:44.000                : vi:02. Video Clip: Nhật Ký Thúy Nga
00:04:49.434                : vi:03. Anh Thì Không - Thúy Nga, Daniel Phú
00:10:14.101                : vi:04. Lời mở đầu - MC Dũng Taylor, Michael
00:20:03.134                : vi:05. Con Gái Bây Giờ & Tóc Em Đuôi Gà - Trung Dũng
00:24:21.735                : vi:06. Video Clip: Á Hậu Dạo Phố
00:27:50.835                : vi:07. Hài kịch: Tại Sao Bị Đánh - Văn Ruy, Calvin Hiệp, Minh Dũng, Thúy Nga
01:00:59.703                : vi:08. Con Đường Màu Xanh - Trịnh Nam Sơn
01:04:50.370                : vi:09. Chị Tôi - Thúy An
01:10:22.570                : vi:10. Mẹ Tôi - Leon Vũ, Andy Thái
01:18:13.770                : vi:11. Video Clip: Tập Quán
01:22:46.070                : vi:12. Hài Kịch: Bà Tôi - Bé Tí, Vũ Quang Trung, Nguyên Khoa, Thúy Nga



[video=youtube;vYdwBqLXZuI]

Link FSHARE:
Bạn nhấn nút Thanks, sau đó nhấn F5 để lấy link nhé!




Link đã được ẩn: Bạn click nút Like để lấy link download nhé.

View more random threads: