Kết quả 1 đến 2 của 2
  1. #1
    Ngày tham gia
    Jun 2014
    Bài viết
    0

    The Walking Dead S05 E11 READNFO 1080p HDTV x264-BATV

    [COLOR=rgb(0, 0, 255)]The Walking Dead S05 E11 READNFO 1080p HDTV x264-BATV[/COLOR]
    [COLOR=rgb(255, 0, 255)]Xác sống phần 05 tập 11[/COLOR]


    The Walking Dead nói về cuộc sống sau thảm họa dịch bệnh thây ma, về một nhóm nhỏ những người sống sót sau sự bùng nổ của đại dịch. Phần lớn câu chuyện diễn ra ở trung tâm Atlanta, những người sống sót cố sức tìm một nơi trú thân mới, chạy trốn những thây ma ăn thịt sống (trong phim còn gọi là những "walker"). Cốt truyện tập trung chủ yếu vào tính nhân văn sau tận thế và cách con người tranh đấu để sống còn.

    Nhóm người này được dẫn đầu bởi Rick Grimes - cựu phó quận trưởng cảnh sát ở một thị trấn nhỏ tại Georgia. Khi tình hình ngày càng trở nên hiểm nghèo, sự tuyệt vọng của nhóm người này đã đẩy họ đến bờ vực của sự mất trí. Dù đi đến đâu, họ cũng phải đối mặt với nỗi kinh hãi từ những thây ma, sự mất đoàn kết, cũng như sự đối địch của số nhỏ những người còn sống rải rác ở nơi khác chỉ quan tâm đến sự sống còn của riêng mình, khi mà trật tự xã hội trên toàn cầu đã sụp đổ...

    Video
    ID : 1
    Format : AVC
    Format/Info : Advanced Video Codec
    Format profile : High@L4.1
    Format settings, CABAC : Yes
    Format settings, ReFrames : 4 frames
    Codec ID : V_MPEG4/ISO/AVC
    Duration : 43mn 12s
    Bit rate : 12.8 Mbps
    Width : 1 918 pixels
    Height : 1 080 pixels
    Display aspect ratio : 16:9
    Frame rate mode : Constant
    Frame rate : 23.976 fps
    Color space : YUV
    Chroma subsampling : 4:2:0
    Bit depth : 8 bits
    Scan type : Progressive
    Bits/(Pixel*Frame) : 0.257
    Stream size : 3.85 GiB (95%)
    Writing library : x264 core 144 r2525 40bb568
    Encoding settings : cabac=1 / ref=4 / deblock=1:-3:-3 / analyse=0x3:0x113 / me=umh / subme=8 / psy=1 / psy_rd=1.00:0.00 / mixed_ref=1 / me_range=16 / chroma_me=1 / trellis=1 / 8x8dct=1 / cqm=0 / deadzone=21,11 / fast_pskip=0 / chroma_qp_offset=-2 / threads=24 / lookahead_threads=4 / sliced_threads=0 / nr=0 / decimate=1 / interlaced=0 / bluray_compat=0 / constrained_intra=0 / bframes=3 / b_pyramid=2 / b_adapt=2 / b_bias=0 / direct=3 / weightb=1 / open_gop=0 / weightp=2 / keyint=250 / keyint_min=23 / scenecut=40 / intra_refresh=0 / rc_lookahead=50 / rc=crf / mbtree=1 / crf=17.0 / qcomp=0.60 / qpmin=0 / qpmax=69 / qpstep=4 / ip_ratio=1.40 / aq=1:1.00
    Language : English
    Default : Yes
    Forced : No
    Matrix coefficients : BT.709

    Audio
    ID : 2
    Format : AC-3
    Format/Info : Audio Coding 3
    Mode extension : CM (complete main)
    Format settings, Endianness : Big
    Codec ID : A_AC3
    Duration : 43mn 12s
    Bit rate mode : Constant
    Bit rate : 384 Kbps
    Channel(s) : 6 channels
    Channel positions : Front: L C R, Side: L R, LFE
    Sampling rate : 48.0 KHz
    Bit depth : 16 bits
    Compression mode : Lossy
    Stream size : 119 MiB (3%)
    Default : Yes
    Forced : No

    Text
    ID : 3
    Format : UTF-8
    Codec ID : S_TEXT/UTF8
    Codec ID/Info : UTF-8 Plain Text
    Default : Yes
    Forced : No












    Link đã được ẩn: Bạn click nút Like để lấy link download nhé.





    Link đã được ẩn: Bạn click nút Like để lấy link download nhé.





    Link đã được ẩn: Bạn click nút Like để lấy link download nhé.





    Link đã được ẩn: Bạn click nút Like để lấy link download nhé.

  2. #2
    Ngày tham gia
    Jun 2014
    Bài viết
    0
    Cap nhat link Ten Lua

 

 

Quyền viết bài

  • Bạn Không thể gửi Chủ đề mới
  • Bạn Không thể Gửi trả lời
  • Bạn Không thể Gửi file đính kèm
  • Bạn Không thể Sửa bài viết của mình
  •