Sherlock Holmes 2009 1080p BluRay x264-SECTOR7
Thám Tử Sherlock Holmes

(Robert Downey Jr., Jude Law, Rachel McAdams )








Mã:
Media info:

Video
ID : 1
Format : AVC
Format/Info : Advanced Video Codec
Format profile : High@L4.1
Format settings, CABAC : Yes
Format settings, ReFrames : 4 frames
Codec ID : V_MPEG4/ISO/AVC
Duration : 2h 8mn
Bit rate : 8 238 Kbps
Width : 1 920 pixels
Height : 1 080 pixels
Display aspect ratio : 16:9
Frame rate mode : Constant
Frame rate : 23.976 fps
Color space : YUV
Chroma subsampling : 4:2:0
Bit depth : 8 bits
Scan type : Progressive
Bits/(Pixel*Frame) : 0.166
Stream size : 7.21 GiB (83%)
Writing library : x264 core 88 r1471 1144615
Encoding settings : cabac=1 / ref=4 / deblock=1:0:0 / analyse=0x3:0x133 / me=umh / subme=8 / psy=1 / psy_rd=1.00:0.00 / mixed_ref=1 / me_range=16 / chroma_me=1 / trellis=1 / 8x8dct=1 / cqm=0 / deadzone=21,11 / fast_pskip=1 / chroma_qp_offset=-2 / threads=24 / sliced_threads=0 / nr=0 / decimate=1 / mbaff=0 / constrained_intra=0 / bframes=3 / b_pyramid=2 / b_adapt=1 / b_bias=0 / direct=3 / wpredb=1 / wpredp=2 / keyint=250 / keyint_min=25 / scenecut=40 / intra_refresh=0 / rc=2pass / mbtree=0 / bitrate=8238 / ratetol=1.0 / qcomp=0.60 / qpmin=10 / qpmax=51 / qpstep=4 / cplxblur=20.0 / qblur=0.5 / ip_ratio=1.40 / pb_ratio=1.30 / aq=1:1.00
Language : English
Default : No
Forced : No

Audio
ID : 2
Format : DTS
Format/Info : Digital Theater Systems
Mode : 16
Format settings, Endianness : Big
Codec ID : A_DTS
Duration : 2h 8mn
Bit rate mode : Constant
Bit rate : 1 509 Kbps
Channel(s) : 6 channels
Channel positions : Front: L C R, Side: L R, LFE
Sampling rate : 48.0 KHz
Bit depth : 24 bits
Compression mode : Lossy
Stream size : 1.35 GiB (15%)
Default : Yes
Forced : No

Trong phim Thám Tử Sherlock Holmes, hàng loạt vụ giết đã người xảy ra, thám tử đại tài Sherlock Holmes cùng trợ tá đắc lực của mình bác sĩ John Watson quyết định điều tra về tên giết người dưới vỏ bọc tôn giáo Lord Henry Blackwood. Holmes và trợ thủ có tìm ra được chân tướng sự việc? Đã rất lâu rồi mới lại có một bộ phim được chuyển thể từ tác phẩm kinh điển của đại văn hào Conan Doyle ra rạp. Trong phim hd này, vẫn là dáng người mảnh khảnh cùng một bác sĩ đáng kính nhưng với cách thể hiện hoàn toàn mới, phim Thám Tử Sherlock Holmes đã thu hút người xem ngay từ khi tung trailer. Bối cảnh London được tái hiện chân thực tạo ra hiệu ứng khá tốt. Ngoài ra, sự góp mặt của "Người Sắt" Robert Downey Jr trong hình ảnh hoàn toàn khác biệt mang tới đặc sắc riêng và làm cho bộ phim hay này càng thêm hấp dẫn.


















Link đã được ẩn: Bạn click nút Like để lấy link download nhé.
Subscene




https://subscene.com/subtitles/sherlock-holmes

View more random threads: