Sherlock Holmes A Game of Shadows 2011 1080p BluRay x264-UNVEiL
Trò Chơi Của Bóng Tối

( Robert Downey Jr., Jude Law, Jared Harris )








Mã:
Video
ID                                       : 1
Format                                   : AVC
Format/Info                              : Advanced Video Codec
Format profile                           : High@L4.1
Format settings, CABAC                   : Yes
Format settings, ReFrames                : 5 frames
Codec ID                                 : V_MPEG4/ISO/AVC
Duration                                 : 2h 8mn
Bit rate                                 : 8 217 Kbps
Width                                    : 1 920 pixels
Height                                   : 800 pixels
Display aspect ratio                     : 2.40:1
Frame rate mode                          : Constant
Frame rate                               : 23.976 fps
Color space                              : YUV
Chroma subsampling                       : 4:2:0
Bit depth                                : 8 bits
Scan type                                : Progressive
Bits/(Pixel*Frame)                       : 0.223
Stream size                              : 7.22 GiB (82%)
Writing library                          : x264 core 122 r2184 5c85e0a
Encoding settings                        : cabac=1 / ref=5 / deblock=1:0:0 / analyse=0x3:0x133 / me=umh / subme=7 / psy=1 / psy_rd=1.00:0.00 / mixed_ref=1 / me_range=16 / chroma_me=1 / trellis=1 / 8x8dct=1 / cqm=0 / deadzone=21,11 / fast_pskip=0 / chroma_qp_offset=-1 / threads=12 / sliced_threads=0 / nr=0 / decimate=1 / interlaced=0 / bluray_compat=0 / constrained_intra=0 / bframes=3 / b_pyramid=2 / b_adapt=1 / b_bias=0 / direct=3 / weightb=1 / open_gop=0 / weightp=2 / keyint=240 / keyint_min=23 / scenecut=40 / intra_refresh=0 / rc_lookahead=40 / rc=2pass / mbtree=1 / bitrate=8217 / ratetol=1.0 / qcomp=0.60 / qpmin=10 / qpmax=51 / qpstep=4 / cplxblur=20.0 / qblur=0.5 / ip_ratio=1.40 / aq=1:1.00
Default                                  : Yes
Forced                                   : No

Audio
ID                                       : 2
Format                                   : DTS
Format/Info                              : Digital Theater Systems
Mode                                     : 16
Format settings, Endianness              : Big
Codec ID                                 : A_DTS
Duration                                 : 2h 8mn
Bit rate mode                            : Constant
Bit rate                                 : 1 509 Kbps
Channel(s)                               : 6 channels
Channel positions                        : Front: L C R, Side: L R, LFE
Sampling rate                            : 48.0 KHz
Bit depth                                : 24 bits
Compression mode                         : Lossy
Stream size                              : 1.36 GiB (16%)
Language                                 : English
Default                                  : Yes
Forced                                   : No


Tiếp nối thành công cuả phần I, hãng Wanner Bross tiếp tục cho ra phần II của phim Trò Chơi Của Bóng Tối. Trong phần phim hay này Holmes cùng bác sĩ cùng nhau điều tra nhằm vén bức màn bí ẩn về các hoạt động buôn bán vũ khí trong chiến tranh và hàng loạt vụ giết người, mọi đầu mối đều dẫn tới vị giáo sư khả kính Moriarty. Vẫn giữ nguyên gần như dàn diễn viên giống như phần I, phim Trò Chơi Của Bóng Tối tmang tới sự gần gũi cho người xem. Những cảnh hành động xuất hiện với tần xuất khá dày đặc trong phim khiến phim online này mang hơi hướng của phim hành động Mỹ kết hợp với đặc sắc trong tác phẩm của Conan Doyle tất cả đã hội tụ để tạo nên 1 siêu phẩm mang tên phim Trò Chơi Của Bóng Tối




















Link đã được ẩn: Bạn click nút Like để lấy link download nhé.
Subscene




https://subscene.com/subtitles/sherlock-holmes-a-game-of-shadows-2011

View more random threads: