Truyện phim là sự đan xen giữa hiện đại và quá khứ. Jack và William là các nhà khảo cổ học phát hiện ra khu lăng mộ cổ từ thời nhà Tần cách nay hơn hai thiên niên kỷ. Tại đây Jack đã gặp một cô công chúa xinh đẹp, cũng chính là cô gái mặc áo trắng luôn ám ảnh trong tâm trí anh nhưng anh không nhớ nổi đó là ai. Cuối cùng, Jack phát hiện ra đó chính là người yêu vào kiếp trước của mình và anh chính là viên tướng Mông Nghị của nhà Tần.
The Myth (2005)
Thần Thoại 2005
[Thần Thoại – Võ Thuật – Cổ Trang]
(Jackie Chan, Kim Hee Sun, Tony Leung Ka Fai, Mallika Sherawat, Patrick Tam...)

Điểm IMDB: 6.0/10
































Mã:
General
Format                                   : Matroska
Format version                           : Version 2
File size                                : 6.56 GiB
Duration                                 : 2h 0mn
Overall bit rate                         : 7 780 Kbps
Movie name                               : San wa (2005)
Encoded date                             : UTC 2010-07-03 03:41:39
Writing application                      : mkvmerge v4.0.0 ('The Stars were mine')
Writing library                          : libebml v1.0.0 + libmatroska v1.0.0

Video
ID                                       : 1
Format                                   : AVC
Format/Info                              : Advanced Video Codec
Format profile                           : High@L4.0
Format settings, CABAC                   : Yes
Format settings, ReFrames                : 8 frames
Codec ID                                 : V_MPEG4/ISO/AVC
Duration                                 : 2h 0mn
Bit rate                                 : 6 271 Kbps
Width                                    : 1 280 pixels
Height                                   : 544 pixels
Display aspect ratio                     : 2.35:1
Frame rate                               : 23.976 fps
Color space                              : YUV
Chroma subsampling                       : 4:2:0
Bit depth                                : 8 bits
Scan type                                : Progressive
Bits/(Pixel*Frame)                       : 0.376
Stream size                              : 5.16 GiB (79%)
Writing library                          : x264 core 65 r999M cc51047
Language                                 : English
Default                                  : Yes
Forced                                   : No

Audio
ID                                       : 2
Format                                   : DTS
Format/Info                              : Digital Theater Systems
Codec ID                                 : A_DTS
Duration                                 : 2h 0mn
Bit rate mode                            : Constant
Bit rate                                 : 1 510 Kbps
Channel(s)                               : 6 channels
Channel positions                        : Front: L C R, Side: L R, LFE
Sampling rate                            : 48.0 KHz
Bit depth                                : 24 bits
Compression mode                         : Lossy
Stream size                              : 1.27 GiB (19%)
Default                                  : Yes
Forced                                   : No

Text #1
ID                                       : 3
Format                                   : UTF-8
Codec ID                                 : S_TEXT/UTF8
Codec ID/Info                            : UTF-8 Plain Text
Language                                 : Vietnamese
Default                                  : Yes
Forced                                   : No

Text #2
ID                                       : 4
Format                                   : UTF-8
Codec ID                                 : S_TEXT/UTF8
Codec ID/Info                            : UTF-8 Plain Text
Language                                 : English
Default                                  : No
Forced                                   : No






6.6GB | MKV
http://www.fshare.vn/file/TQ4W7JAFCT

subtile
Đính kèm bên dưới