Aek (Mario Maurer), một anh chàng tay chơi của cửa hàng Jeans đã tự hứa sẽ không bao giờ yêu bất cứ một cô gái nào cả. Những người bạn khác của anh ấy là Tem-soop (Worachat Thamwijin), một anh chàng cá tính, táo bạo và Jud (Thema Kanchanapairin), một anh chàng điển trai danh tính bí ẩn.
Một ngày nọ, định mệnh đã đưa lối để Aeak gặp được một cô gái xinh đẹp quyến rũ tên Mint (Amena Gul). Và ngay lập tức, anh trúng tiếng sét ái tình. Chiến dịch giành lấy tình yêu bắt đầu.
Liệu Aek có thay đổi từ hình tượng một anh chàng tay chơi thành một chàng trai biết tin và trân trọng tình yêu?



รักสุดทีน - Rak Sud Teen 2012 HDTV 720p Tình Yêu Mới Lớn 2012
[Hài hước - Lãng mạn]
(Mario Maurer, Amena Gul, Pornsuda Tawarapa, Thema Kanchanapairin, Worachat Thamwijin,...)


Điểm IMDB: 5.0 /10









Mã:
 Format                                   : Flash Video
File size                                : 888 MiB
Duration                                 : 1h 50mn
Overall bit rate mode                    : Variable
Overall bit rate                         : 1 126 Kbps
major_brand                              : avc1

Video
Format                                   : AVC
Format/Info                              : Advanced Video Codec
Format profile                           : High@L3.0
Format settings, CABAC                   : Yes
Format settings, ReFrames                : 4 frames
Codec ID                                 : 7
Duration                                 : 1h 50mn
Bit rate                                 : 1 000 Kbps
Width                                    : 720 pixels
Height                                   : 400 pixels
Display aspect ratio                     : 16:9
Frame rate mode                          : Constant
Frame rate                               : 29.970 fps
Color space                              : YUV
Chroma subsampling                       : 4:2:0
Bit depth                                : 8 bits
Scan type                                : Progressive
Bits/(Pixel*Frame)                       : 0.116
Stream size                              : 789 MiB (89%)
Writing library                          : x264 core 115 r1937 aa21558

Audio
Format                                   : MPEG Audio
Format version                           : Version 1
Format profile                           : Layer 3
Codec ID                                 : 2
Codec ID/Hint                            : MP3
Duration                                 : 1h 50mn
Bit rate mode                            : Variable
Bit rate                                 : 119 Kbps
Channel(s)                               : 2 channels
Sampling rate                            : 44.1 KHz
Compression mode                         : Lossy
Delay relative to video                  : 67ms
Stream size                              : 93.6 MiB (11%)




1 link 0.8 GB


Mã:
 http://www.fshare.vn/folder/T5WQ0ARFNT

Đính kèm
Hardsub Việt