The Tourist 2010 mHD BluRay x264-EPiK


Mã:
General
Complete name                    : The Tourist 2010 mHD BluRay x264-EPiK
Format                          : Matroska
File size                        : 1.44 GiB
Duration                        : 1h 43mn
Overall bit rate                : 1 990 Kbps
Movie name                      : EPiK ~ all.hdvnbits.org
Encoded date                    : UTC 2011-02-20 10:58:56
Writing application              : mkvmerge v4.5.0 ('Speed of Light') built on Feb  1 2011 02:10:32
Writing library                  : libebml v1.2.0 + libmatroska v1.1.0
Video
ID                              : 1
Format                          : AVC
Format/Info                      : Advanced Video Codec
Format profile                  : High@L4.1
Format settings, CABAC          : Yes
Format settings, ReFrames        : 8 frames
Codec ID                        : V_MPEG4/ISO/AVC
Duration                        : 1h 43mn
Bit rate                        : 1 502 Kbps
Width                            : 1 280 pixels
Height                          : 534 pixels
Display aspect ratio            : 2.35:1
Frame rate                      : 23.976 fps
Color space                      : YUV
Chroma subsampling              : 4:2:0
Bit depth                        : 8 bits
Scan type                        : Progressive
Bits/(Pixel*Frame)              : 0.092
Stream size                      : 1.09 GiB (75%)
Title                            : EPiK ~ all.hdvnbits.org
Writing library                  : x264 core 114 r1900 60ef1f8
Encoding settings                : cabac=1 / ref=8 / deblock=1:-3:-3 / analyse=0x3:0x113 / me=umh / subme=9 / psy=1 / psy_rd=0.80:0.00 / mixed_ref=1 / me_range=16 / chroma_me=1 / trellis=2 / 8x8dct=1 / cqm=0 / deadzone=21,11 / fast_pskip=0 / chroma_qp_offset=-2 / threads=6 / sliced_threads=0 / nr=0 / decimate=0 / interlaced=0 / constrained_intra=0 / bframes=7 / b_pyramid=2 / b_adapt=2 / b_bias=0 / direct=3 / weightb=1 / open_gop=0 / weightp=2 / keyint=250 / keyint_min=23 / scenecut=40 / intra_refresh=0 / rc_lookahead=40 / rc=crf / mbtree=1 / crf=20.8 / qcomp=0.60 / qpmin=0 / qpmax=69 / qpstep=4 / ip_ratio=1.40 / aq=1:0.80
Language                        : English
Audio
ID                              : 2
Format                          : AC-3
Format/Info                      : Audio Coding 3
Mode extension                  : CM (complete main)
Codec ID                        : A_AC3
Duration                        : 1h 43mn
Bit rate mode                    : Constant
Bit rate                        : 448 Kbps
Channel(s)                      : 6 channels
Channel positions                : Front: L C R, Side: L R, LFE
Sampling rate                    : 48.0 KHz
Bit depth                        : 16 bits
Compression mode                : Lossy
Stream size                      : 332 MiB (23%)
Title                            : EPiK ~ all.hdvnbits.org
Language                        : English






Mã:
http://www.fshare.vn/file/TYZ1A6TS6T



Mã:
http://subscene.com/subtitles/the-tourist