Vượt qua những scandal tuổi học trò trong hai phần American Pie 1 và 2, đôi bạn Jim và Michelle ngày càng khắng khít và họ đi tới quyết định thành vợ thành chồng. Trong số bạn bè, Jim ngán nhất là anh chàng Steve Stifler siêu quậy (Seann William Scott) - nay đã là huấn luyện viên bóng chày cho trường trung học, nên đã không cho Jim biết về đám cưới của mình. Không may thay, tin đám cưới của Jim và Michelle đến tay Steve, và thế là anh chàng Jim tội nghiệp liên tục gặp rắc rối với những trò đùa quái ác của Steve...

American Pie 3: The Wedding 2003 720p HDTV x264-PurEvil

:imdb:


Mã:
http://www.imdb.com/title/tt0328828/
:trailer:

:info:​

Mã:
General
Complete name                    : American.Pie.The.Wedding.2003.720p.HDTV.x264-PurEvil.mkv
Format                          : Matroska
File size                        : 3.61 GiB
Duration                        : 1h 29mn
Overall bit rate                : 5 777 Kbps
Movie name                      : American Wedding 1080i HDTV DD2 track_3401
Encoded date                    : UTC 2011-07-18 11:46:10
Writing application              : mkvmerge v4.9.1 ('Ich will') built on Jul 11 2011 23:53:15
Writing library                  : libebml v1.2.1 + libmatroska v1.1.1

Video
ID                              : 1
Format                          : AVC
Format/Info                      : Advanced Video Codec
Format profile                  : High@L4.1
Format settings, CABAC          : Yes
Format settings, ReFrames        : 4 frames
Muxing mode                      : Header stripping
Codec ID                        : V_MPEG4/ISO/AVC
Duration                        : 1h 29mn
Bit rate                        : 5 521 Kbps
Width                            : 1 280 pixels
Height                          : 720 pixels
Display aspect ratio            : 16:9
Frame rate                      : 25.000 fps
Color space                      : YUV
Chroma subsampling              : 4:2:0
Bit depth                        : 8 bits
Bits/(Pixel*Frame)              : 0.240
Stream size                      : 3.38 GiB (94%)
Writing library                  : x264 core 116 r2019 9cc407d
Language                        : English

Audio
ID                              : 2
Format                          : AC-3
Format/Info                      : Audio Coding 3
Mode extension                  : CM (complete main)
Muxing mode                      : Header stripping
Codec ID                        : A_AC3
Duration                        : 1h 29mn
Bit rate mode                    : Constant
Bit rate                        : 256 Kbps
Channel(s)                      : 2 channels
Channel positions                : Front: L R
Sampling rate                    : 48.0 KHz
Bit depth                        : 16 bits
Compression mode                : Lossy
Stream size                      : 164 MiB (4%)
Language                        : English
:screen:

:dl:​

Mã:
http://www.fshare.vn/file/T2DMA6BANT
:sub: