Kết quả 1 đến 2 của 2
  1. #1
    Ngày tham gia
    Jun 2014
    Bài viết
    0

    Kill Dil 2014 Hindi 720p Bluray x264 DTS-Hon3y-JadViE -Đôi Bạn Sát Thủ

    Kill Dil 2014 Hindi 720p Bluray x264 DTS-Hon3y-JadViE
    Đôi Bạn Sát Thủ











    Rating: 4.8 (1,436 votes)
    Language: Hindi
    Country: India
    Runtime: 127 min
    All Genres: Action, Crime, Drama
    Director: Shaad Ali
    Written By: Nitesh Tiwari (screenplay), Shreyas Jain (screenplay), Nikhil Mehrotra (screenplay)
    Cast:Ranveer Singh, Ali Zafar, Parineeti Chopra, Govinda

    Bộ phim Kill Dil thuộc thể loại hành động mafia có pha tình tiết hài hước kể về Dev và Tutu được đào tạo và lớn lên trong một thế giới xã hội đen, và họ có những ý nghĩ táo bạo trong nhiệm vụ ám sát sắp tới...​







    Mã:
    Video
    ID  : 1
    Format  : AVC
    Format/Info  : Advanced Video Codec
    Format profile  : High@L4.1
    Format settings, CABAC  : Yes
    Format settings, ReFrames  : 8 frames
    Codec ID  : V_MPEG4/ISO/AVC
    Duration  : 1h 58mn
    Bit rate  : 3 798 Kbps
    Width  : 1 280 pixels
    Height  : 544 pixels
    Display aspect ratio  : 2.35:1
    Frame rate mode  : Constant
    Frame rate  : 24.000 fps
    Color space  : YUV
    Chroma subsampling  : 4:2:0
    Bit depth  : 8 bits
    Scan type  : Progressive
    Bits/(Pixel*Frame)  : 0.227
    Stream size  : 3.04 GiB (67%)
    Writing library  : x264 core 142 r2453 ea0ca51
    Default  : Yes
    Forced  : No
    
    Audio #1
    ID  : 2
    Format  : AC-3
    Format/Info  : Audio Coding 3
    Mode extension  : CM (complete main)
    Format settings, Endianness : Big
    Codec ID  : A_AC3
    Duration  : 1h 58mn
    Bit rate mode  : Constant
    Bit rate  : 192 Kbps
    Channel(s)  : 2 channels
    Channel positions  : Front: L R
    Sampling rate  : 48.0 KHz
    Bit depth  : 16 bits
    Compression mode  : Lossy
    Stream size  : 162 MiB (3%)
    Title  : @JadViE - trungnq92@gmail.com
    Language  : Vietnamese
    Default  : Yes
    Forced  : Yes
    
    Audio #2
    ID  : 3
    Format  : DTS
    Format/Info  : Digital Theater Systems
    Mode  : 16
    Format settings, Endianness : Big
    Codec ID  : A_DTS
    Duration  : 1h 58mn
    Bit rate mode  : Constant
    Bit rate  : 1 509 Kbps
    Channel(s)  : 6 channels
    Channel positions  : Front: L C R, Side: L R, LFE
    Sampling rate  : 48.0 KHz
    Bit depth  : 24 bits
    Compression mode  : Lossy
    Stream size  : 1.24 GiB (27%)
    Language  : Hindi
    Default  : No
    Forced  : No
    
    Text #1
    ID  : 4
    Format  : UTF-8
    Codec ID  : S_TEXT/UTF8
    Codec ID/Info  : UTF-8 Plain Text
    Title  : @JadViE - trungnq92@gmail.com
    Language  : Vietnamese
    Default  : Yes
    Forced  : Yes
    
    Text #2
    ID  : 5
    Format  : UTF-8
    Codec ID  : S_TEXT/UTF8
    Codec ID/Info  : UTF-8 Plain Text
    Title  : @JadViE - trungnq92@gmail.com
    Language  : English
    Default  : No
    Forced  : No



































    1 link Fshare ~4.54GB






    Link đã được ẩn: Bạn click nút Like để lấy link download nhé.
    Tenlua


    4Share






    Link đã được ẩn: Bạn click nút Like để lấy link download nhé.



    Sub Việt





    http://subscene.com/subtitles/kill-dil




    View more random threads:


  2. #2
    Ngày tham gia
    Apr 2015
    Bài viết
    38
    Au và Sub Việt các bạn có thể sử dụng cho các bản Bluray, Blurip cùng time và fps.

 

 

Quyền viết bài

  • Bạn Không thể gửi Chủ đề mới
  • Bạn Không thể Gửi trả lời
  • Bạn Không thể Gửi file đính kèm
  • Bạn Không thể Sửa bài viết của mình
  •