[COLOR=rgb(0, 0, 179)]The Equalizer 2014 ViE mHD BluRay DD5.1 x264-EPiK[/COLOR]

[COLOR=rgb(255, 0, 0)]Thiện Ác Đối Đầu[/COLOR]

[COLOR=rgb(0, 102, 51)](Denzel Washington)

{thuyết minh, sub Vie, sub Eng}
[/COLOR]



[COLOR=rgb(0, 128, 0)]Information[/COLOR]



Mã:
Complete name                  : The.Equalizer.2014.ViE.mHD.BluRay.DD5.1.x264-EPiK.mkv
Format                         : Matroska
Format version                 : Version 4 / Version 2
File size                      : 3.76 GiB
Duration                       : 2h 12mn
Overall bit rate               : 4 078 Kbps
Writing library                : libebml v1.3.1 + libmatroska v1.4.2

Video
ID                             : 1
Format                         : AVC
Format/Info                    : Advanced Video Codec
Format profile                 : High@L4.1
Format settings, CABAC         : Yes
Format settings, ReFrames      : 12 frames
Codec ID                       : V_MPEG4/ISO/AVC
Duration                       : 2h 12mn
Bit rate                       : 2 717 Kbps
Width                          : 1 280 pixels
Height                         : 536 pixels
Display aspect ratio           : 2.40:1
Frame rate mode                : Constant
Frame rate                     : 23.976 fps
Color space                    : YUV
Chroma subsampling             : 4:2:0
Bit depth                      : 8 bits
Scan type                      : Progressive
Bits/(Pixel*Frame)             : 0.165
Stream size                    : 2.51 GiB (67%)
Title                          : The.Equalizer.2014.ViE.mHD.BluRay.DD5.1.x264-EPiK
Writing library                : x264 core 142 r2431+42 c69a006 tMod [8-bit@all X86_64]

Audio #1
ID                             : 2
Format                         : AC-3
Format/Info                    : Audio Coding 3
Mode extension                 : CM (complete main)
Format settings, Endianness    : Big
Codec ID                       : A_AC3
Duration                       : 2h 12mn
Bit rate mode                  : Constant
Bit rate                       : 640 Kbps
Channel(s)                     : 6 channels
Channel positions              : Front: L C R, Side: L R, LFE
Sampling rate                  : 48.0 KHz
Compression mode               : Lossy
Stream size                    : 604 MiB (16%)
Title                          : eng
Language                       : English
Default                        : No
Forced                         : No

Audio #2
ID                             : 3
Format                         : AC-3
Format/Info                    : Audio Coding 3
Mode extension                 : CM (complete main)
Format settings, Endianness    : Big
Codec ID                       : A_AC3
Duration                       : 2h 12mn
Bit rate mode                  : Constant
Bit rate                       : 640 Kbps
Channel(s)                     : 6 channels
Channel positions              : Front: L C R, Side: L R, LFE
Sampling rate                  : 48.0 KHz
Compression mode               : Lossy
Stream size                    : 604 MiB (16%)
Title                          : vie
Language                       : Vietnamese
Default                        : Yes
Forced                         : No
[COLOR=rgb(0, 128, 0)]Nội dung[/COLOR]

[COLOR=rgb(0, 0, 128)]Từ những “di sản” mà những bậc tiền bối đã gây dựng, The Equalizer ra đời như một sự tổng hoà đầy cuốn hút của các bộ phim Die Hard, Terminator 2: Judgement Day, Equilibrium, The Matrix... dưới bàn tay “nhào nặn” của đạo diễn đầy tên tuổi Antoine Fuqua. Là chuyên gia về thể loại phim hành động, đạo diễn Antoine Fuqua sẽ mang lại cho The Equalizer những màu sắc mới, những pha võ thuật đẹp mắt, có phần bạo lực, đẫm máu, vừa có ngộp thở tới kinh hoàng, mới lạ nhưng nội dung cũng không kém phần sâu sắc. Bên cạnh đó còn có rất nhiều yếu tố đặc sắc đủ để thuyết phục các fan khó tính nhất.[/COLOR]

[COLOR=rgb(0, 0, 128)]Có lẽ chưa cần phải bàn đến bộ phim, cái tên Denzel Washington – chủ nhân 3 giải Quả cầu vàng và 2 tượng vàng Oscar đã đủ sức thu hút sự chú ý của khán giả bới diễn xuất mê hồn cùng dáng vẻ đầy nam tính. Tài năng cùng với sự nổi tiếng của nam diễn viên này là điều không thể phủ nhận qua từng tác phẩm như The Hurricane hay Training Day… và khó có ai có thể vượt qua được anh vào thời điểm này. Vì lí do này, Denzel được coi như là một trong những át chủ bài quan trọng nhất và là bảo chứng cho sự thành công của The Equalizer.[/COLOR]

[COLOR=rgb(0, 128, 0)]Screenshot[/COLOR]









[COLOR=rgb(0, 128, 0)]Trailer[/COLOR]



[COLOR=rgb(0, 128, 0)]Download[/COLOR]

[COLOR=rgb(0, 128, 0)]Fshare[/COLOR]

https://www.fshare.vn/folder/JL4FMHAOCDI9

[COLOR=rgb(0, 128, 0)]Sub Vie & Sub Eng[/COLOR]

https://www.fshare.vn/folder/JL4FMHAOCDI9

[COLOR=rgb(255, 0, 0)]<div style="text-align: center">concocon1990 hân hạnh mang đến cho các bạn những bộ phim đặc sắc với chất lượng mHD nhỏ gọn, thuyết minh dành cho những bạn nào lười đọc sub và phụ đề song ngữ Eng và Vie đã đồng bộ phù hợp cho những bạn nào vừa xem phim, vừa muốn gia tăng vốn từ vựng tiếng Anh của các bạn. Với triết lý upload "phim đặc sắc, thuyết minh, phụ đề song ngữ" cộng với phương châm "chất lượng chứ không phải số lượng" concocon1990 hi vọng sẽ đem đến cho các bạn những phút giây giải trí đích thực của bộ môn nghệ thuật chiều thứ 7. Hẹn gặp lại các bạn trong những bộ phim sắp tới của concocon1990 [/COLOR]

[COLOR=rgb(255, 0, 0)]Tổng hợp [/COLOR][COLOR=rgb(0, 0, 179)]"phim đặc sắc, thuyết minh, phụ đề song ngữ" được upload bởi concocon: http://taiphimhd.com/tags/concocon1990/[/COLOR]
​</div>

View more random threads: