Kết quả 1 đến 6 của 6
  1. #1
    Ngày tham gia
    Dec 2015
    Bài viết
    1

    Paris By Night 112 720p WEBRip - NSIT~Thúy Nga Paris By Night 112

    Paris By Night 112 720p WEBRip - NSIT
    Thúy Nga Paris By Night 112






    1. Một Ngày Vui Mùa Đông (Lê Uyên Phương) - Trần Thái Hòa & Ngọc Anh
    2. Tuyết Rơi Mùa Hè (Trần Lê Quỳnh) - Quang Dũng
    3. Đêm Đông (Nguyễn Văn Thương & Kim Minh) - Bằng Kiều, Đình Bảo, Thiên Tôn
    4. Tuyết Rơi (Lời Việt: Phạm Duy) - Don Hồ / Bài Tình Ca Mùa Đông (Trầm Tử Thiêng) - Thanh Hà
    5. Phố Mùa Đông (Bảo Chấn) - Lam Anh / Mùa Đông Sắp Đến (Đức Huy) - Anh Tú / Xa Rồi Mùa Đông (Nguyễn Nam) - Ngọc Anh
    6. Mùa Đông Thương Nhớ (Hùng Linh) - Hương Thủy
    7. Níu Kéo (Lương Bằng Quang) - Lương Tùng Quang & Minh Tuyết
    8. Chia Tay Chiều Đông (Lương Bằng Quang) – Ánh Minh
    9. Hình Bóng Trong Tim (Tùng Châu, Thái Thịnh) - Tâm Đoan
    10. Bài Thánh Ca Buồn (Nguyễn Vũ) - Thái Châu
    11. Chờ Đông (Trần Thiện Thanh) - Bảo Khánh
    12. Đêm Lao Xao (Tường Văn) - Kỳ Phương Uyên / Ngày Mưa Tuyết (Nhạc ngoại quốc) - Như Loan
    13. Hài Kịch - Chí Tài, Hoài Tâm, Việt Hương, Thúy Nga, Long Đẹp Trai
    14. Còn Mãi Mùa Đông (Lời Việt: Thái Thịnh) - Như Quỳnh
    15. Nửa Đêm Ngoài Phố (Trúc Phương) - Khánh Lâm / Người Ngoài Phố (Anh Việt Thu) - Tuấn Quỳnh
    16. Mùa Đông Xứ Huế ( Minh Kỳ, Lê Dinh) - Hương Lan
    17. Đông (Vũ Cát Tường) - Mai Tiến Dũng
    18. Nhật Ký Mùa Đông (Hà Phương) - Hạ Vy
    19. Nỗi Buồn Đêm Đông (Anh Minh) - Mai Thiên Vân / Chuyện Tình Người Đan Áo (Trường Sa) - Quang Lê
    20. Mùa Đông - Lương Tùng Quang & Diễm Sương
    21. Let It Go (Kristen Anderson-Lopez & Robert Lopez) - Tóc Tiên
    22. LK Nỗi Nhớ Mùa Đông & Ô Cửa Sổ Mùa Đông (Dương Thụ) - Bằng Kiều & Thu Phương
    23. Hai Mùa Noel (Nguyễn Vũ) - Trần Thái Hòa & Minh Tuyết
    24. White Christmas (Irving Berlin) - Quỳnh Vi
    Santa Claus is Coming to Town (John Frederick Coots & Haven Gillespie) - Justin Nguyễn



    Mã:
    General
    Unique ID                                : 219926902606040671352137466644827367647 (0xA57461778E5AC7F0A7784F5FEC4668DF)
    Complete name                            : Thuy.Nga.Paris.By.Night.112.WEBRip.720p-NSIT.mkv
    Format                                   : Matroska
    Format version                           : Version 4 / Version 2
    File size                                : 2.31 GiB
    Duration                                 : 2h 7mn
    Overall bit rate                         : 2 587 Kbps
    Movie name                               : NhipsongIT.com
    Encoded date                             : UTC 2014-12-17 23:48:18
    Writing application                      : mkvmerge v7.4.0 ('Circles') 64bit built on Dec 12 2014 12:19:56
    Writing library                          : libebml v1.3.0 + libmatroska v1.4.1
    DURATION                                 : 01:44:00.000000000
    NUMBER_OF_FRAMES                         : 5
    NUMBER_OF_BYTES                          : 194
    _STATISTICS_WRITING_APP                  : mkvmerge v7.4.0 ('Circles') 64bit built on Dec 12 2014 12:19:56
    _STATISTICS_WRITING_DATE_UTC             : 2014-12-17 23:48:18
    _STATISTICS_TAGS                         : BPS DURATION NUMBER_OF_FRAMES NUMBER_OF_BYTES
    
    Video #1
    ID                                       : 1
    Format                                   : AVC
    Format/Info                              : Advanced Video Codec
    Format profile                           : High@L3.1
    Format settings, CABAC                   : Yes
    Format settings, ReFrames                : 4 frames
    Codec ID                                 : V_MPEG4/ISO/AVC
    Duration                                 : 2h 7mn
    Width                                    : 1 140 pixels
    Height                                   : 638 pixels
    Display aspect ratio                     : 16:9
    Frame rate mode                          : Constant
    Frame rate                               : 30.000 fps
    Standard                                 : Component
    Color space                              : YUV
    Chroma subsampling                       : 4:2:0
    Bit depth                                : 8 bits
    Scan type                                : Progressive
    Default                                  : Yes
    Forced                                   : No
    Color primaries                          : BT.709
    Transfer characteristics                 : BT.709
    Matrix coefficients                      : BT.709
    
    Video #2
    ID                                       : 3
    Format                                   : AVC
    Format/Info                              : Advanced Video Codec
    Format profile                           : High@L3.1
    Format settings, CABAC                   : Yes
    Format settings, ReFrames                : 4 frames
    Codec ID                                 : V_MPEG4/ISO/AVC
    Duration                                 : 2h 7mn
    Width                                    : 1 172 pixels
    Height                                   : 640 pixels
    Display aspect ratio                     : 1.85:1
    Frame rate mode                          : Constant
    Frame rate                               : 30.000 fps
    Standard                                 : Component
    Color space                              : YUV
    Chroma subsampling                       : 4:2:0
    Bit depth                                : 8 bits
    Scan type                                : Progressive
    Default                                  : No
    Forced                                   : No
    Color primaries                          : BT.709
    Transfer characteristics                 : BT.709
    Matrix coefficients                      : BT.709
    
    Video #3
    ID                                       : 5
    Format                                   : AVC
    Format/Info                              : Advanced Video Codec
    Format profile                           : High@L3.1
    Format settings, CABAC                   : Yes
    Format settings, ReFrames                : 4 frames
    Codec ID                                 : V_MPEG4/ISO/AVC
    Duration                                 : 2h 7mn
    Width                                    : 1 140 pixels
    Height                                   : 638 pixels
    Display aspect ratio                     : 16:9
    Frame rate mode                          : Constant
    Frame rate                               : 30.000 fps
    Standard                                 : Component
    Color space                              : YUV
    Chroma subsampling                       : 4:2:0
    Bit depth                                : 8 bits
    Scan type                                : Progressive
    Default                                  : No
    Forced                                   : No
    Color primaries                          : BT.709
    Transfer characteristics                 : BT.709
    Matrix coefficients                      : BT.709
    
    Video #4
    ID                                       : 7
    Format                                   : AVC
    Format/Info                              : Advanced Video Codec
    Format profile                           : High@L3.1
    Format settings, CABAC                   : Yes
    Format settings, ReFrames                : 4 frames
    Codec ID                                 : V_MPEG4/ISO/AVC
    Duration                                 : 2h 7mn
    Width                                    : 1 172 pixels
    Height                                   : 644 pixels
    Display aspect ratio                     : 1.85:1
    Frame rate mode                          : Constant
    Frame rate                               : 30.000 fps
    Standard                                 : Component
    Color space                              : YUV
    Chroma subsampling                       : 4:2:0
    Bit depth                                : 8 bits
    Scan type                                : Progressive
    Default                                  : No
    Forced                                   : No
    Color primaries                          : BT.709
    Transfer characteristics                 : BT.709
    Matrix coefficients                      : BT.709
    
    Video #5
    ID                                       : 9
    Format                                   : AVC
    Format/Info                              : Advanced Video Codec
    Format profile                           : High@L3.1
    Format settings, CABAC                   : Yes
    Format settings, ReFrames                : 4 frames
    Codec ID                                 : V_MPEG4/ISO/AVC
    Duration                                 : 2h 7mn
    Nominal bit rate                         : 1 000 Kbps
    Width                                    : 1 172 pixels
    Height                                   : 644 pixels
    Display aspect ratio                     : 1.85:1
    Frame rate mode                          : Constant
    Frame rate                               : 30.000 fps
    Color space                              : YUV
    Chroma subsampling                       : 4:2:0
    Bit depth                                : 8 bits
    Scan type                                : Progressive
    Bits/(Pixel*Frame)                       : 0.044
    Writing library                          : x264 core 142 r2479 dd79a61
    Encoding settings                        : cabac=1 / ref=1 / deblock=1:0:0 / analyse=0x3:0x113 / me=hex / subme=2 / psy=1 / psy_rd=1.00:0.00 / mixed_ref=0 / me_range=16 / chroma_me=1 / trellis=0 / 8x8dct=1 / cqm=0 / deadzone=21,11 / fast_pskip=1 / chroma_qp_offset=0 / threads=6 / lookahead_threads=2 / sliced_threads=0 / nr=0 / decimate=1 / interlaced=0 / bluray_compat=0 / constrained_intra=0 / bframes=3 / b_pyramid=2 / b_adapt=1 / b_bias=0 / direct=1 / weightb=1 / open_gop=0 / weightp=1 / keyint=250 / keyint_min=25 / scenecut=40 / intra_refresh=0 / rc_lookahead=10 / rc=cbr / mbtree=1 / bitrate=1000 / ratetol=1.0 / qcomp=0.60 / qpmin=0 / qpmax=69 / qpstep=4 / vbv_maxrate=1000 / vbv_bufsize=1000 / nal_hrd=none / filler=1 / ip_ratio=1.40 / aq=1:1.00
    Default                                  : No
    Forced                                   : No
    Color primaries                          : BT.709
    Transfer characteristics                 : sYCC
    Matrix coefficients                      : BT.709
    
    Audio #1
    ID                                       : 2
    Format                                   : MPEG Audio
    Format version                           : Version 1
    Format profile                           : Layer 3
    Mode                                     : Joint stereo
    Mode extension                           : MS Stereo
    Codec ID                                 : A_MPEG/L3
    Codec ID/Hint                            : MP3
    Duration                                 : 2h 7mn
    Bit rate mode                            : Constant
    Bit rate                                 : 192 Kbps
    Channel(s)                               : 2 channels
    Sampling rate                            : 44.1 KHz
    Compression mode                         : Lossy
    Stream size                              : 176 MiB (7%)
    Writing library                          : LAME3.99.5
    Default                                  : Yes
    Forced                                   : No
    
    Audio #2
    ID                                       : 4
    Format                                   : MPEG Audio
    Format version                           : Version 1
    Format profile                           : Layer 3
    Mode                                     : Joint stereo
    Mode extension                           : MS Stereo
    Codec ID                                 : A_MPEG/L3
    Codec ID/Hint                            : MP3
    Duration                                 : 2h 7mn
    Bit rate mode                            : Constant
    Bit rate                                 : 128 Kbps
    Channel(s)                               : 2 channels
    Sampling rate                            : 44.1 KHz
    Compression mode                         : Lossy
    Stream size                              : 117 MiB (5%)
    Writing library                          : LAME3.99.5
    Default                                  : No
    Forced                                   : No
    
    Audio #3
    ID                                       : 6
    Format                                   : MPEG Audio
    Format version                           : Version 1
    Format profile                           : Layer 3
    Mode                                     : Joint stereo
    Mode extension                           : MS Stereo
    Codec ID                                 : A_MPEG/L3
    Codec ID/Hint                            : MP3
    Duration                                 : 2h 7mn
    Bit rate mode                            : Constant
    Bit rate                                 : 192 Kbps
    Channel(s)                               : 2 channels
    Sampling rate                            : 44.1 KHz
    Compression mode                         : Lossy
    Stream size                              : 176 MiB (7%)
    Writing library                          : LAME3.99.5
    Default                                  : No
    Forced                                   : No
    
    Audio #4
    ID                                       : 8
    Format                                   : MPEG Audio
    Format version                           : Version 1
    Format profile                           : Layer 3
    Mode                                     : Joint stereo
    Mode extension                           : MS Stereo
    Codec ID                                 : A_MPEG/L3
    Codec ID/Hint                            : MP3
    Duration                                 : 2h 7mn
    Bit rate mode                            : Constant
    Bit rate                                 : 128 Kbps
    Channel(s)                               : 2 channels
    Sampling rate                            : 44.1 KHz
    Compression mode                         : Lossy
    Stream size                              : 117 MiB (5%)
    Writing library                          : LAME3.99
    Default                                  : No
    Forced                                   : No
    
    Text
    ID                                       : 10
    Format                                   : UTF-8
    Codec ID                                 : S_TEXT/UTF8
    Codec ID/Info                            : UTF-8 Plain Text
    Language                                 : Vietnamese
    Default                                  : Yes
    Forced                                   : Yes



    [VIDEO]

    1 Link FSHARE~2.31GB
    Bạn nhấn nút Thanks, sau đó nhấn F5 để lấy link nhé!




    Link đã được ẩn: Bạn click nút Like để lấy link download nhé.
    1 Link TENLUA~2.31GB
    Bạn nhấn nút Thanks, sau đó nhấn F5 để lấy link nhé!




    Link đã được ẩn: Bạn click nút Like để lấy link download nhé.

    View more random threads:


  2. #2
    Ngày tham gia
    Nov 2015
    Bài viết
    0
    hàng HOT xúc ngay kẻo lỡ !!!

  3. #3
    Ngày tham gia
    Nov 2015
    Bài viết
    0
    Trích dẫn Gửi bởi henryduc96
    hàng HOT xúc ngay kẻo lỡ !!!
    Hot đấy nhưng Sai Box rồi, toàn HDRip và WEBRip post vào Box 720p & 1080p Bluray

  4. #4
    Ngày tham gia
    Jun 2014
    Bài viết
    0
    Trích dẫn Gửi bởi henryduc96
    [COLOR=rgb(255, 0, 0)]Paris By Night 112 720p WEBRip - NSIT[/COLOR]​

    chân thành cảm ơn ban quantrị
    [COLOR=rgb(255, 215, 0)]Thúy Nga Paris By Night 112
    [/COLOR]






    Mã:
    General
    Unique ID                                : 219926902606040671352137466644827367647 (0xA57461778E5AC7F0A7784F5FEC4668DF)
    Complete name                            : Thuy.Nga.Paris.By.Night.112.WEBRip.720p-NSIT.mkv
    Format                                   : Matroska
    Format version                           : Version 4 / Version 2
    File size                                : 2.31 GiB
    Duration                                 : 2h 7mn
    Overall bit rate                         : 2 587 Kbps
    Movie name                               : NhipsongIT.com
    Encoded date                             : UTC 2014-12-17 23:48:18
    Writing application                      : mkvmerge v7.4.0 ('Circles') 64bit built on Dec 12 2014 12:19:56
    Writing library                          : libebml v1.3.0 + libmatroska v1.4.1
    DURATION                                 : 01:44:00.000000000
    NUMBER_OF_FRAMES                         : 5
    NUMBER_OF_BYTES                          : 194
    _STATISTICS_WRITING_APP                  : mkvmerge v7.4.0 ('Circles') 64bit built on Dec 12 2014 12:19:56
    _STATISTICS_WRITING_DATE_UTC             : 2014-12-17 23:48:18
    _STATISTICS_TAGS                         : BPS DURATION NUMBER_OF_FRAMES NUMBER_OF_BYTES
     
    Video #1
    ID                                       : 1
    Format                                   : AVC
    Format/Info                              : Advanced Video Codec
    Format profile                           : High@L3.1
    Format settings, CABAC                   : Yes
    Format settings, ReFrames                : 4 frames
    Codec ID                                 : V_MPEG4/ISO/AVC
    Duration                                 : 2h 7mn
    Width                                    : 1 140 pixels
    Height                                   : 638 pixels
    Display aspect ratio                     : 16:9
    Frame rate mode                          : Constant
    Frame rate                               : 30.000 fps
    Standard                                 : Component
    Color space                              : YUV
    Chroma subsampling                       : 4:2:0
    Bit depth                                : 8 bits
    Scan type                                : Progressive
    Default                                  : Yes
    Forced                                   : No
    Color primaries                          : BT.709
    Transfer characteristics                 : BT.709
    Matrix coefficients                      : BT.709
     
    Video #2
    ID                                       : 3
    Format                                   : AVC
    Format/Info                              : Advanced Video Codec
    Format profile                           : High@L3.1
    Format settings, CABAC                   : Yes
    Format settings, ReFrames                : 4 frames
    Codec ID                                 : V_MPEG4/ISO/AVC
    Duration                                 : 2h 7mn
    Width                                    : 1 172 pixels
    Height                                   : 640 pixels
    Display aspect ratio                     : 1.85:1
    Frame rate mode                          : Constant
    Frame rate                               : 30.000 fps
    Standard                                 : Component
    Color space                              : YUV
    Chroma subsampling                       : 4:2:0
    Bit depth                                : 8 bits
    Scan type                                : Progressive
    Default                                  : No
    Forced                                   : No
    Color primaries                          : BT.709
    Transfer characteristics                 : BT.709
    Matrix coefficients                      : BT.709
     
    Video #3
    ID                                       : 5
    Format                                   : AVC
    Format/Info                              : Advanced Video Codec
    Format profile                           : High@L3.1
    Format settings, CABAC                   : Yes
    Format settings, ReFrames                : 4 frames
    Codec ID                                 : V_MPEG4/ISO/AVC
    Duration                                 : 2h 7mn
    Width                                    : 1 140 pixels
    Height                                   : 638 pixels
    Display aspect ratio                     : 16:9
    Frame rate mode                          : Constant
    Frame rate                               : 30.000 fps
    Standard                                 : Component
    Color space                              : YUV
    Chroma subsampling                       : 4:2:0
    Bit depth                                : 8 bits
    Scan type                                : Progressive
    Default                                  : No
    Forced                                   : No
    Color primaries                          : BT.709
    Transfer characteristics                 : BT.709
    Matrix coefficients                      : BT.709
     
    Video #4
    ID                                       : 7
    Format                                   : AVC
    Format/Info                              : Advanced Video Codec
    Format profile                           : High@L3.1
    Format settings, CABAC                   : Yes
    Format settings, ReFrames                : 4 frames
    Codec ID                                 : V_MPEG4/ISO/AVC
    Duration                                 : 2h 7mn
    Width                                    : 1 172 pixels
    Height                                   : 644 pixels
    Display aspect ratio                     : 1.85:1
    Frame rate mode                          : Constant
    Frame rate                               : 30.000 fps
    Standard                                 : Component
    Color space                              : YUV
    Chroma subsampling                       : 4:2:0
    Bit depth                                : 8 bits
    Scan type                                : Progressive
    Default                                  : No
    Forced                                   : No
    Color primaries                          : BT.709
    Transfer characteristics                 : BT.709
    Matrix coefficients                      : BT.709
     
    Video #5
    ID                                       : 9
    Format                                   : AVC
    Format/Info                              : Advanced Video Codec
    Format profile                           : High@L3.1
    Format settings, CABAC                   : Yes
    Format settings, ReFrames                : 4 frames
    Codec ID                                 : V_MPEG4/ISO/AVC
    Duration                                 : 2h 7mn
    Nominal bit rate                         : 1 000 Kbps
    Width                                    : 1 172 pixels
    Height                                   : 644 pixels
    Display aspect ratio                     : 1.85:1
    Frame rate mode                          : Constant
    Frame rate                               : 30.000 fps
    Color space                              : YUV
    Chroma subsampling                       : 4:2:0
    Bit depth                                : 8 bits
    Scan type                                : Progressive
    Bits/(Pixel*Frame)                       : 0.044
    Writing library                          : x264 core 142 r2479 dd79a61
    Encoding settings                        : cabac=1 / ref=1 / deblock=1:0:0 / analyse=0x3:0x113 / me=hex / subme=2 / psy=1 / psy_rd=1.00:0.00 / mixed_ref=0 / me_range=16 / chroma_me=1 / trellis=0 / 8x8dct=1 / cqm=0 / deadzone=21,11 / fast_pskip=1 / chroma_qp_offset=0 / threads=6 / lookahead_threads=2 / sliced_threads=0 / nr=0 / decimate=1 / interlaced=0 / bluray_compat=0 / constrained_intra=0 / bframes=3 / b_pyramid=2 / b_adapt=1 / b_bias=0 / direct=1 / weightb=1 / open_gop=0 / weightp=1 / keyint=250 / keyint_min=25 / scenecut=40 / intra_refresh=0 / rc_lookahead=10 / rc=cbr / mbtree=1 / bitrate=1000 / ratetol=1.0 / qcomp=0.60 / qpmin=0 / qpmax=69 / qpstep=4 / vbv_maxrate=1000 / vbv_bufsize=1000 / nal_hrd=none / filler=1 / ip_ratio=1.40 / aq=1:1.00
    Default                                  : No
    Forced                                   : No
    Color primaries                          : BT.709
    Transfer characteristics                 : sYCC
    Matrix coefficients                      : BT.709
     
    Audio #1
    ID                                       : 2
    Format                                   : MPEG Audio
    Format version                           : Version 1
    Format profile                           : Layer 3
    Mode                                     : Joint stereo
    Mode extension                           : MS Stereo
    Codec ID                                 : A_MPEG/L3
    Codec ID/Hint                            : MP3
    Duration                                 : 2h 7mn
    Bit rate mode                            : Constant
    Bit rate                                 : 192 Kbps
    Channel(s)                               : 2 channels
    Sampling rate                            : 44.1 KHz
    Compression mode                         : Lossy
    Stream size                              : 176 MiB (7%)
    Writing library                          : LAME3.99.5
    Default                                  : Yes
    Forced                                   : No
     
    Audio #2
    ID                                       : 4
    Format                                   : MPEG Audio
    Format version                           : Version 1
    Format profile                           : Layer 3
    Mode                                     : Joint stereo
    Mode extension                           : MS Stereo
    Codec ID                                 : A_MPEG/L3
    Codec ID/Hint                            : MP3
    Duration                                 : 2h 7mn
    Bit rate mode                            : Constant
    Bit rate                                 : 128 Kbps
    Channel(s)                               : 2 channels
    Sampling rate                            : 44.1 KHz
    Compression mode                         : Lossy
    Stream size                              : 117 MiB (5%)
    Writing library                          : LAME3.99.5
    Default                                  : No
    Forced                                   : No
     
    Audio #3
    ID                                       : 6
    Format                                   : MPEG Audio
    Format version                           : Version 1
    Format profile                           : Layer 3
    Mode                                     : Joint stereo
    Mode extension                           : MS Stereo
    Codec ID                                 : A_MPEG/L3
    Codec ID/Hint                            : MP3
    Duration                                 : 2h 7mn
    Bit rate mode                            : Constant
    Bit rate                                 : 192 Kbps
    Channel(s)                               : 2 channels
    Sampling rate                            : 44.1 KHz
    Compression mode                         : Lossy
    Stream size                              : 176 MiB (7%)
    Writing library                          : LAME3.99.5
    Default                                  : No
    Forced                                   : No
     
    Audio #4
    ID                                       : 8
    Format                                   : MPEG Audio
    Format version                           : Version 1
    Format profile                           : Layer 3
    Mode                                     : Joint stereo
    Mode extension                           : MS Stereo
    Codec ID                                 : A_MPEG/L3
    Codec ID/Hint                            : MP3
    Duration                                 : 2h 7mn
    Bit rate mode                            : Constant
    Bit rate                                 : 128 Kbps
    Channel(s)                               : 2 channels
    Sampling rate                            : 44.1 KHz
    Compression mode                         : Lossy
    Stream size                              : 117 MiB (5%)
    Writing library                          : LAME3.99
    Default                                  : No
    Forced                                   : No
     
    Text
    ID                                       : 10
    Format                                   : UTF-8
    Codec ID                                 : S_TEXT/UTF8
    Codec ID/Info                            : UTF-8 Plain Text
    Language                                 : Vietnamese
    Default                                  : Yes
    Forced                                   : Yes



    [VIDEO]

    [COLOR=rgb(255, 140, 0)]1 Link FSHARE~2.31GB[/COLOR]
    Bạn nhấn nút Thanks, sau đó nhấn F5 để lấy link nhé!
    ***Hidden content cannot be quoted.***

    [COLOR=rgb(255, 140, 0)]1 Link TENLUA~2.31GB[/COLOR]
    Bạn nhấn nút Thanks, sau đó nhấn F5 để lấy link nhé!
    ***Hidden content cannot be quoted.***

  5. #5
    Ngày tham gia
    Jul 2014
    Bài viết
    0
    Thanks for sharing

  6. #6
    Ngày tham gia
    Jul 2014
    Bài viết
    0
    LINK DIE ROI

 

 

Quyền viết bài

  • Bạn Không thể gửi Chủ đề mới
  • Bạn Không thể Gửi trả lời
  • Bạn Không thể Gửi file đính kèm
  • Bạn Không thể Sửa bài viết của mình
  •