Kết quả 1 đến 4 của 4
  1. #1
    Ngày tham gia
    Jun 2014
    Bài viết
    0

    The Living Sea 1995 - Sự Sống Của Biển Cả

    Quay lại với những thước phim về biển.
    Tìm hiểu thêm về vùng biển đang ngự trị phần lớn diện tích trên quả đất chúng ta, nguồn gốc và xuất xứ cũng như vẻ đẹp của nó làm cho chúng ta phải tự hào và trân trọng, Hãy giữ gìn những gì chúng ta đã có...

    Năm sản xuất: 1995
    Thuyết minh tiếng Anh
    Phụ đề tiếng Việt: Nguyễn Hoàng Lân

    IMAX - THE LIVING SEA - SỰ SỐNG CỦA BIỂN CẢ 1440x1080


    :info:

    Mã:
    Complete name                  : IMAX 1995 The Living Sea 1440x1080 PUB.VN.wmv
    Format                          : Windows Media
    File size                        : 2.30 GiB
    Duration                        : 39mn 33s
    Overall bit rate mode            : Constant
    Overall bit rate                : 8 317 Kbps
    Maximum Overall bit rate        : 8 470 Kbps
    Encoded date                    : UTC 2004-04-04 02:16:50.720
    
    Video
    ID                              : 2
    Format                          : VC-1
    Format profile                  : MP@HL
    Codec ID                        : WMV3
    Codec ID/Info                    : Windows Media Video 9
    Codec ID/Hint                    : WMV3
    Description of the codec        : Windows Media Video 9 - Professional
    Duration                        : 39mn 33s
    Bit rate mode                    : Constant
    Bit rate                        : 8 000 Kbps
    Width                            : 1 440 pixels
    Height                          : 1 080 pixels
    Display aspect ratio            : 4:3
    Frame rate                      : 23.976 fps
    Bit depth                        : 8 bits
    Scan type                        : Progressive
    Compression mode                : Lossy
    Bits/(Pixel*Frame)              : 0.215
    Stream size                      : 2.21 GiB (96%)
    Language                        : English (US)
    
    Audio
    ID                              : 1
    Format                          : WMA
    Format profile                  : Pro
    Codec ID                        : 162
    Codec ID/Info                    : Windows Media Audio
    Description of the codec        : Windows Media Audio 9 Professional - 440 kbps, 48 kHz, 5.1 channel 24 bit 1-pass CBR
    Duration                        : 39mn 33s
    Bit rate mode                    : Constant
    Bit rate                        : 440 Kbps
    Channel(s)                      : 6 channels
    Sampling rate                    : 48.0 KHz
    Bit depth                        : 24 bits
    Stream size                      : 125 MiB (5%)
    Language                        : English (US)
    :imdb:


    Mã:
    http://www.imdb.com/title/tt0113676/
    :screen:



    :dl:


    Mã:
    www.fshare.vn/file/TR74PT38YT/
    Pass unrar: pub.vn
    
    http://www.mediafire.com/?b3bta1ayacdi3

    View more random threads:


  2. #2
    Ngày tham gia
    Nov 2015
    Bài viết
    0
    Đã sửa tiêu đề sai chính tả,
    Lưu ý:
    Plot đặt lên đầu bài
    Khuyến cáo nên tự re-upload lại để tránh tình trạng có pass...gắn tên miền của web khác

  3. #3
    Ngày tham gia
    Aug 2015
    Bài viết
    0
    hihi, e đang k biết sửa tiêu đề sao
    tại e k có acc fshare Vip nên là up die nhanh lắm T_T

  4. #4
    Ngày tham gia
    Jul 2014
    Bài viết
    154
    Trích dẫn Gửi bởi notunmartin
    hihi, e đang k biết sửa tiêu đề sao
    tại e k có acc fshare Vip nên là up die nhanh lắm T_T
    Mai mình sẽ cấp acc fshare vip hỗ trợ bạn upload phim nhé.
    Có sử dụng skype thì add nick mình trao đổi cho tiện: cutyhamchoi

 

 

Quyền viết bài

  • Bạn Không thể gửi Chủ đề mới
  • Bạn Không thể Gửi trả lời
  • Bạn Không thể Gửi file đính kèm
  • Bạn Không thể Sửa bài viết của mình
  •