Kết quả 1 đến 4 của 4
  1. #1
    Ngày tham gia
    May 2014
    Bài viết
    0

    Kungfu Panda Huyền Thoại Chiến Binh - Kungfu Panda Legends Of Awesomeness FULL HDTV 720p

    Kungfu Panda Huyền Thoại Chiến Binh
    Kungfu Panda Legends Of Awesomeness FULL

    Ratings: 7,2/10 from 2.528 users





    Kung Fu Panda: Legends of Awesomeness kể về những cuộc phiêu lưu tiếp tục Po gấu trúc như ông đào tạo, bảo vệ, chiến đấu, dạy, học, nói chuyện quá nhiều và chuyên viên máy tính là người anh hùng mới nhất trong Thung lũng Hòa Bình. Bây giờ sống trong doanh trại với Furious Five, Po sẽ phải nhận rất nhiều trách nhiệm mới của mình và pound cũ của mình trong những cuộc phiêu lưu tiếp tục của Dragon Warrior. Tựa khác: Huyền Thoại Anh Hùng.



    Mã:
    General
    Complete name                            : Kungfu Panda Huyền Thoại Chiến Binh - Kungfu Panda Legends Of Awesomeness s1\Kungfu Panda Huyền Thoại Chiến Binh - Kungfu Panda Legends Of Awesomeness tap 1.mp4
    Format                                   : MPEG-4
    Format profile                           : Base Media
    Codec ID                                 : isom
    File size                                : 195 MiB
    Duration                                 : 23mn 42s
    Overall bit rate mode                    : Variable
    Overall bit rate                         : 1 152 Kbps
    Encoded date                             : UTC 2013-01-10 05:23:35
    Tagged date                              : UTC 2013-01-10 05:23:35
    
    Video
    ID                                       : 1
    Format                                   : AVC
    Format/Info                              : Advanced Video Codec
    Format profile                           : High@L4.1
    Format settings, CABAC                   : Yes
    Format settings, ReFrames                : 4 frames
    Codec ID                                 : avc1
    Codec ID/Info                            : Advanced Video Coding
    Duration                                 : 23mn 42s
    Bit rate                                 : 1 020 Kbps
    Maximum bit rate                         : 4 975 Kbps
    Width                                    : 960 pixels
    Height                                   : 540 pixels
    Display aspect ratio                     : 16:9
    Frame rate mode                          : Constant
    Frame rate                               : 29.970 fps
    Color space                              : YUV
    Chroma subsampling                       : 4:2:0
    Bit depth                                : 8 bits
    Scan type                                : Progressive
    Bits/(Pixel*Frame)                       : 0.066
    Stream size                              : 173 MiB (89%)
    Writing library                          : x264 core 129 r2230 1cffe9f
    Encoding settings                        : cabac=1 / ref=3 / deblock=1:0:0 / analyse=0x3:0x113 / me=hex / subme=7 / psy=1 / psy_rd=1.00:0.00 / mixed_ref=1 / me_range=16 / chroma_me=1 / trellis=1 / 8x8dct=1 / cqm=0 / deadzone=21,11 / fast_pskip=1 / chroma_qp_offset=-2 / threads=12 / lookahead_threads=2 / sliced_threads=0 / nr=0 / decimate=1 / interlaced=0 / bluray_compat=0 / constrained_intra=0 / bframes=3 / b_pyramid=2 / b_adapt=1 / b_bias=0 / direct=1 / weightb=1 / open_gop=0 / weightp=2 / keyint=300 / keyint_min=29 / scenecut=40 / intra_refresh=0 / rc_lookahead=40 / rc=2pass / mbtree=1 / bitrate=1020 / ratetol=1.0 / qcomp=0.60 / qpmin=10 / qpmax=51 / qpstep=4 / cplxblur=20.0 / qblur=0.5 / ip_ratio=1.40 / aq=1:1.00
    Encoded date                             : UTC 2013-01-10 05:23:35
    Tagged date                              : UTC 2013-01-10 05:23:37
    
    Audio
    ID                                       : 2
    Format                                   : AAC
    Format/Info                              : Advanced Audio Codec
    Format profile                           : LC
    Codec ID                                 : 40
    Duration                                 : 23mn 42s
    Bit rate mode                            : Variable
    Bit rate                                 : 128 Kbps
    Maximum bit rate                         : 145 Kbps
    Channel(s)                               : 2 channels
    Channel positions                        : Front: L R
    Sampling rate                            : 48.0 KHz
    Compression mode                         : Lossy
    Stream size                              : 21.7 MiB (11%)
    Encoded date                             : UTC 2013-01-10 05:23:37
    Tagged date                              : UTC 2013-01-10 05:23:37



    [VIDEO]

    Link FSHARE:
    Mùa Thứ Nhất:

    Bạn nhấn nút Thanks, sau đó nhấn F5 để lấy link nhé!




    Link đã được ẩn: Bạn click nút Like để lấy link download nhé.
    Mùa Thứ Hai:
    Bạn nhấn nút Thanks, sau đó nhấn F5 để lấy link nhé!




    Link đã được ẩn: Bạn click nút Like để lấy link download nhé.
    Mùa Thứ Ba:
    Bạn nhấn nút Thanks, sau đó nhấn F5 để lấy link nhé!




    Link đã được ẩn: Bạn click nút Like để lấy link download nhé.

    View more random threads:


  2. #2
    Ngày tham gia
    Nov 2015
    Bài viết
    13
    Bạn có thể up cho mình qu Link Tenlua được không?
    Thanks bạn nhiều!

  3. #3
    Ngày tham gia
    Jul 2014
    Bài viết
    0
    cập nhật thêm SEASON 2

  4. #4
    Ngày tham gia
    Mar 2014
    Bài viết
    0
    cập nhật thêm SEASON 3

 

 

Quyền viết bài

  • Bạn Không thể gửi Chủ đề mới
  • Bạn Không thể Gửi trả lời
  • Bạn Không thể Gửi file đính kèm
  • Bạn Không thể Sửa bài viết của mình
  •