Kết quả 1 đến 5 của 5
  1. #1
    Ngày tham gia
    Apr 2014
    Bài viết
    0

    Ghost in the Shell Arise collection (2013-2015) 1080p Blu-ray AVC TrueHD 5.1 (ISO) ~ Biệt Đội Bóng Ma xuất hiện



    Movies list: http://www.imdb.com/list/ls031149107/​
    https://en.wikipedia.org/wiki/Ghost_in_the_Shell:_Arise
    Series phim nói về cuộc chiến giữa những con người đặc biệt với những loại tội phạm công nghệ cao. Series GITS nổi tiếng nhờ những pha đấu trí căng thẳng cùng cốt truyện đậm chất nhân văn của mình. Đặc biệt trong những phần trước còn có những đoạn nhân vật trong phim trích cả kinh phật, cả kinh thánh, rồi những điển tích điển cố. Mốc thời gian của sự kiện trong Arise diễn ra trước tất cả các sự kiện trong các movie và TV series trước, vậy nên chẳng cần xem những phần trước bạn vẫn hiểu được phim nói gì.<Over>

    Sau đây là 1 số khái niệm thường xuyên xuất hiện trong series:

    Cục an ninh công cộng số 9 ( gọi tắt là Cục 9):là một bộ phận trực thuộc Bộ nội vụ, được thành lập ra trong thế giới GITS chuyên để đối phó với những vụ án liên quan đến công nghệ cao. Và cũng chính vì để đối phó với tội phạm công nghệ cao nên đa số thành viên của cục 9 nếu không phải quái vật thì cũng không phải người.

    Cyberbrain ( trong phim được mình dịch là Não nhân tạo):ảnh nó đây

    ,

    Trông thì giống 1 cỗ máy nhưng thực chất là cái vỏ để chưa não thật ở bên trong, và nó biến bộ não người thành 1 cái máy tính thực sự, có khả năng trình chiếu phim ảnh, có thể kết nối wifi, gọi điện được, nhắn tin được, bla bla bla...
    Phần đuôi bộ não nhân tạo chạy xuống khoảng giữa cổ và có cổng kết nối giống như cổng USB vậy, các bạn xem phim sẽ thấy nhân vật trong phim thường xuyên sử dụng cổng đó để kết nối người với máy hay người này với người khác.

    Cyborg ( hay full cyborg, prothestic body, người bán cơ khí, người được cơ khí hóa):tất cả các từ trên đều được dùng để chỉ những người đã thay thế 1 phần hay toàn bộ cơ thể bằng máy móc, trong phim mình sẽ đổi qua lại giữa những từ đó sao cho phù hợp với câu và tiện đọc nhất. Ngoài ra cũng nói thêm là, những người đã thay thế cơ thể bằng máy móc sẽ không ăn thức ăn của con người mà sẽ ăn một loại protein đặc biệt mà người bình thường không thể nuốt nổi Họ có mất bao nhiêu phần cơ thể cũng không chết được mà chỉ chết khi não chết hẳn.

    Think tank:một loại chiến xa mini tự hành có độ cơ động cao và được điều khiển bằng trí thông minh nhân tạo, ai đã xem các phần trước sẽ biết nó là con Tachikoma còn ở phần này là 1 phiên bản đời đầu cồng kềnh hơn được gọi là Logikoma.

    Ngoài ra trong Arise còn xuất hiện một loại người máy có khả năng cận chiến cao và tự hủy khi cần thiết được gọi là những quả mìn thông minh di động, mình cứ dịch đơn giản là người máy cho nhanh, nếu sau này có gì thay đổi mình sẽ lưu ý.

    Cuối cùng là khái niệm mình cho là quan trọng nhất cả series- Ghost:có thể nói ngoài bộ não ra ghost chính là phần con người duy nhất còn lại của các full cyborg, có thể hiểu nó như linh hồn cũng được.

    Về thời gian trong phim:các sự kiện trong Arise diễn ra vào năm 2027 - 1 năm sau cuộc chiến tranh thế giới lần thứ tư (tất nhiên là phi hạt nhân), khi đó Cục 9 vẫn chưa có đội điều tra đặc biệt và các thành viên cốt cán vẫn chưa thành hình. Và cũng như đã nói ở trên, trước tất cả các sự kiện khác.

    ------------- o0o --------------


    Ghost in the Shell Arise: Border 1 - Ghost Pain 2013 - Biệt Đội Bóng Ma: Linh Hồn Tội Lỗi | Ratings: 7.3/10 | Review - Phụ đề -
    Năm 2027, thành phố New Port vẫn đang hồi phục từ hậu quả của chiến tranh. Một sĩ quan quân đội có dính đến việc ăn hối lộ và buôn bán vũ khí bất hợp pháp bị giết. Trong quá trình điều tra, Daisuke Aramaki của Cục An ninh Quốc gia gặp Motoko Kusanagi, một hacker nửa người nửa máy cao cấp thuộc đơn vị bí mật số 501. Batou, người đàn ông với "con mắt không ngủ", nghi ngờ Kusanagi là kẻ đứng sau vụ đánh bom. Thanh tra cảnh sát Togusa đang theo đuổi cùng lúc 2 vụ án một người bị bắn chết và một cô gái điếm bị giết. Motoko thì đang bị theo dõi bởi cả người đứng đầu đơn vị mật 501 Kurutsu và những đặc vụ nửa người nửa máy, không những thế cô còn nghi ngờ mình bị ảo giác khi liên tục nhìn thấy con robot đã tấn công mình ở nhiều nơi, thậm chí ngay trong nhà mình. Những vụ việc này có liên quan gì đến nhau, liệu Makoto có khám phá ra được âm mưu đằng sau không?Ghost in the Shell Arise: Border 1 - Ghost Pain 2013 720p BluRay DD5.1 x264-CtrlHD {2.4 GiB} Fshare TenLua
    Ghost in the Shell Arise: Border 1 - Ghost Pain 2013 1080p Blu-ray AVC TrueHD 5.1 (ISO) {22.4 GiB} Fshare
    Ghost in the Shell Arise: Border 1 - Ghost Pain 2013 mHD BluRay DD5.1 x264-TRiM {1.4 GiB} Fshare


    Ghost in the Shell Arise: Border 2 - Ghost Whisper 2013 - Biệt Đội Bóng Ma 2: Lời thì thầm của Quỷ | Ratings: 7.4/10 | Review - Phụ đề -
    Ở cuối phần trước, Thiếu tá Kusanagi Motoko đã không còn làm việc cho đơn vị 501 nữa, giờ cô đã được Aramaki tuyển vào Section 9. Và trong khi còn chưa tuyển được thành viên cho đội đặc nhiệm của riêng mình, một kẻ thù tấn công toàn bộ hệ thống điều khiển giao thông của thành phố, chỉ có cô và con Logicoma của mình có thể ngăn chặn hắn, tuy nhiên cô không thể làm việc này một mình.Ghost in the Shell Arise: Border 2 - Ghost Whisper 2013 1080p Blu-ray AVC TrueHD 5.1 (ISO) {22.7 GiB} Fshare
    Ghost in the Shell Arise: Border 2 - Ghost Whisper 2013 mHD BluRay DD5.1 x264-TRiM {1.6 GiB} Fshare


    Ghost in the Shell Arise: Border 3 - Ghost Tears 2014 - Biệt Đội Bóng Ma 3: Nước mắt ủa Quỷ | Ratings: 7.3/1 | Review
    Motoko gặp khủng hoảng tâm lý, cô thay hết người yêu này đến người yêu khác. Akira, một kỹ sư chuyên về các bộ phận thân thể nhân tạo là người yêu mới nhất của Motoko và có lẽ cũng là người hiểu cô nhất. Cho đến khi hàng loạt án mạng và tai nạn xảy ra, tất cả do kẻ tự xưng là Scylla, một chiến binh huyền thoại của quân phiến loạn được cho rằng đã chết gây ra, nhưng Motoko lại là người hiểu rõ hơn ai hết người đó không thể là Scylla thực sự.Ghost in the Shell Arise: Border 3 - Ghost Tears 2014 1080p Blu-ray AVC TrueHD 5.1 (ISO) {21.5 GiB} Fshare


    Ghost in the Shell Arise: Border 4 - Ghost Stands Alone 2014 - Biệt Đội Bóng Ma 4: Thân Quỷ Lạc Loài | Ratings: 7.4/1 | Review
    Phần thứ tư này diễn ra trong bối cảnh những dấu hiệu của việc tái thiết sau chiến tranh vào mùa đông năm 2028. Căng thẳng đang gia tăng ở New Port City khi các cuộc biểu tình được tổ chức liên quan đến lợi ích của các tập đoàn nước ngoài. Điều này dẫn đến một vụ nổ súng liên quan đến cảnh sát chống bạo động. Tất cả bắt đầu với một nhiễm trùng cyberbrain phát hành bởi những kẻ khủng bố Fire Starter.Ghost in the Shell Arise: Border 4 - Ghost Stands Alone 2014 1080p Blu-ray AVC TrueHD 5.1 (ISO) {22.6 GiB} Fshare


    Ghost in the Shell Arise collection - Biệt Đội Bóng Ma xuất hiện | Ratings: 7.4/10 | Review - Phụ đề -
    https://en.wikipedia.org/wiki/Ghost_in_the_Shell:_Arise
    Series phim nói về cuộc chiến giữa những con người đặc biệt với những loại tội phạm công nghệ cao. Series GITS nổi tiếng nhờ những pha đấu trí căng thẳng cùng cốt truyện đậm chất nhân văn của mình. Đặc biệt trong những phần trước còn có những đoạn nhân vật trong phim trích cả kinh phật, cả kinh thánh, rồi những điển tích điển cố. Mốc thời gian của sự kiện trong Arise diễn ra trước tất cả các sự kiện trong các movie và TV series trước, vậy nên chẳng cần xem những phần trước bạn vẫn hiểu được phim nói gì.
    Ghost in the Shell Arise collection (2013-2015) 1080p Blu-ray AVC TrueHD 5.1 (ISO) {90 GiB} Fshare TenLua


    ------------- o0o --------------



    .o0o Tổng hợp các SERIES - PACK - COLLECTION o0o.

    View more random threads:


  2. #2
    Ngày tham gia
    Mar 2014
    Bài viết
    0
    Ghost in the Shell Arise: Border 1 - Ghost Pain 2013 1080p Blu-ray AVC TrueHD 5.1 (ISO)


    Biệt Đội Bóng Ma: Linh Hồn Tội Lỗi

    {Phụ đề tiếng Việt}

    (Maaya Sakamoto, Ikkyu Juku, Ken'ichirô Matsuda)

    Ratings: 7.3/10 from 1,292 users

    Thông tin phim. Click HERE:


    [SPOILER]
    Nội dung phim
    <div style="padding-left: 30px"><div style="padding-left: 30px">Năm 2027, thành phố New Port vẫn đang hồi phục từ hậu quả của chiến tranh. Một sĩ quan quân đội có dính đến việc ăn hối lộ và buôn bán vũ khí bất hợp pháp bị giết. Trong quá trình điều tra, Daisuke Aramaki của Cục An ninh Quốc gia gặp Motoko Kusanagi, một hacker nửa người nửa máy cao cấp thuộc đơn vị bí mật số 501. Batou, người đàn ông với "con mắt không ngủ", nghi ngờ Kusanagi là kẻ đứng sau vụ đánh bom. Thanh tra cảnh sát Togusa đang theo đuổi cùng lúc 2 vụ án một người bị bắn chết và một cô gái điếm bị giết. Motoko thì đang bị theo dõi bởi cả người đứng đầu đơn vị mật 501 Kurutsu và những đặc vụ nửa người nửa máy, không những thế cô còn nghi ngờ mình bị ảo giác khi liên tục nhìn thấy con robot đã tấn công mình ở nhiều nơi, thậm chí ngay trong nhà mình. Những vụ việc này có liên quan gì đến nhau, liệu Makoto có khám phá ra được âm mưu đằng sau không?
    Review
    ​[/SPOILER]
    Trailer


    Media Info
    <div style="padding-left: 30px"><div style="padding-left: 30px">DISC INFO:

    Disc Title: GHOST_IN_THE_SHELL_ARISE_D1
    Disc Size: 24,080,676,302 bytes
    Protection: AACS
    BD-Java: No
    BDInfo: 0.5.8

    PLAYLIST REPORT:

    Name: 00001.MPLS
    Length: 0:58:16.034 (h:m:s.ms)
    Size: 16,309,174,272 bytes
    Total Bitrate: 37.32 Mbps

    VIDEO:

    Codec Bitrate Description
    ----- ------- -----------
    MPEG-4 AVC Video 28963 kbps 1080p / 23.976 fps / 16:9 / High Profile 4.1

    AUDIO:

    Codec Language Bitrate Description
    ----- -------- ------- -----------
    Dolby TrueHD Audio English 2144 kbps 5.1 / 48 kHz / 2144 kbps / 16-bit (AC3 Embedded: 5.1 / 48 kHz / 448 kbps / DN -6dB)
    Dolby TrueHD Audio Japanese 1614 kbps 5.1 / 48 kHz / 1614 kbps / 16-bit (AC3 Embedded: 5.1 / 48 kHz / 448 kbps / DN -9dB)

    SUBTITLES:

    Codec Language Bitrate Description
    ----- -------- ------- -----------
    Presentation Graphics English 32.690 kbps
    Presentation Graphics English 2.219 kbps

    FILES:

    Name Time In Length Size Total Bitrate
    ---- ------- ------ ---- -------------
    00043.M2TS 0:00:00.000 0:58:05.523 16,278,601,728 37,363
    00034.M2TS 0:58:05.523 0:00:10.010 30,185,472 24,124
    00035.M2TS 0:58:15.533 0:00:00.500 387,072 6,187​</div></div>
    Screenshots












    </div>
    </div>


    Download
    Dung lượng: 22.4 GiB (1 link)






    Link đã được ẩn: Bạn click nút Like để lấy link download nhé.
    Phụ đề
    (đã có bản tiếng Việt)
    http://subscene.com/subtitles/ghost-in-the-shell-arise-border-1-ghost-pain



    Các bản encode của phim
    <div style="padding-left: 30px"><div style="padding-left: 30px"><div style="padding-left: 30px">720p:
    Ghost in the Shell Arise: Border 1 - Ghost Pain 2013 720p BluRay DD5.1 x264-CtrlHD - {2.4 GiB} Fshare TenLua

    Blu-ray:
    Ghost in the Shell Arise: Border 1 - Ghost Pain 2013 1080p Blu-ray AVC TrueHD 5.1 (ISO) - {22.4 GiB} Fshare

    mHD:
    Ghost in the Shell Arise: Border 1 - Ghost Pain 2013 mHD BluRay DD5.1 x264-TRiM - {1.4 GiB} Fshare​</div></div></div>

  3. #3
    Ngày tham gia
    Feb 2014
    Bài viết
    0
    Ghost in the Shell Arise: Border 2 - Ghost Whisper 2013 1080p Blu-ray AVC TrueHD 5.1 (ISO)


    Biệt Đội Bóng Ma 2: Lời thì thầm của Quỷ

    {Phụ đề tiếng Việt}

    (Maaya Sakamoto, Ikkyu Juku, Ken'ichirô Matsuda)

    Ratings: 7.4/10 from 860 users

    Thông tin phim. Click HERE:


    [SPOILER]
    Nội dung phim
    <div style="padding-left: 30px"><div style="padding-left: 30px">Ở cuối phần trước, Thiếu tá Kusanagi Motoko đã không còn làm việc cho đơn vị 501 nữa, giờ cô đã được Aramaki tuyển vào Section 9. Và trong khi còn chưa tuyển được thành viên cho đội đặc nhiệm của riêng mình, một kẻ thù tấn công toàn bộ hệ thống điều khiển giao thông của thành phố, chỉ có cô và con Logicoma của mình có thể ngăn chặn hắn, tuy nhiên cô không thể làm việc này một mình.
    Review
    ​[/SPOILER]
    Trailer


    Media Info
    <div style="padding-left: 30px"><div style="padding-left: 30px">DISC INFO:

    Disc Title: GHOST_IN_THE_SHELL_ARISE_D2
    Disc Size: 24,388,520,530 bytes
    Protection: AACS
    BD-Java: No
    BDInfo: 0.5.8

    PLAYLIST REPORT:

    Name: 00001.MPLS
    Length: 0:56:14.913 (h:m:s.ms)
    Size: 13,960,409,088 bytes
    Total Bitrate: 33.09 Mbps

    (*) Indicates included stream hidden by this playlist.

    VIDEO:

    Codec Bitrate Description
    ----- ------- -----------
    MPEG-4 AVC Video 22555 kbps 1080p / 23.976 fps / 16:9 / High Profile 4.1

    AUDIO:

    Codec Language Bitrate Description
    ----- -------- ------- -----------
    Dolby TrueHD Audio English 2244 kbps 5.1 / 48 kHz / 2244 kbps / 16-bit (AC3 Embedded: 5.1 / 48 kHz / 448 kbps / DN -6dB)
    Dolby TrueHD Audio Japanese 1792 kbps 5.1 / 48 kHz / 1792 kbps / 16-bit (AC3 Embedded: 5.1 / 48 kHz / 448 kbps / DN -9dB)
    * Dolby TrueHD Audio English 1013 kbps 2.0 / 48 kHz / 1013 kbps / 24-bit (AC3 Embedded: 2.0 / 48 kHz / 192 kbps / DN -7dB)

    SUBTITLES:

    Codec Language Bitrate Description
    ----- -------- ------- -----------
    Presentation Graphics English 34.634 kbps
    Presentation Graphics English 1.126 kbps

    FILES:

    Name Time In Length Size Total Bitrate
    ---- ------- ------ ---- -------------
    00043.M2TS 0:00:00.000 0:56:04.402 13,929,836,544 33,123
    00034.M2TS 0:56:04.402 0:00:10.010 30,185,472 24,124
    00035.M2TS 0:56:14.412 0:00:00.500 387,072 6,187​</div></div>
    Screenshots











    </div>
    </div>


    Download
    Dung lượng: 22.7 GiB (1 link)






    Link đã được ẩn: Bạn click nút Like để lấy link download nhé.
    Phụ đề
    (đã có bản tiếng Việt)
    http://subscene.com/subtitles/ghost-in-the-shell-arise-border-2-ghost-whisper/vietnamese/836653



    Các bản encode của phim
    <div style="padding-left: 30px"><div style="padding-left: 30px"><div style="padding-left: 30px">Blu-ray:
    Ghost in the Shell Arise: Border 2 - Ghost Whisper 2013 1080p Blu-ray AVC TrueHD 5.1 (ISO) - {22.7 GiB} Fshare

    mHD:
    Ghost in the Shell Arise: Border 2 - Ghost Whisper 2013 mHD BluRay DD5.1 x264-TRiM - {1.6 GiB} Fshare ​</div></div></div>

  4. #4
    Ngày tham gia
    Mar 2016
    Bài viết
    45
    Ghost in the Shell Arise: Border 3 - Ghost Tears 2014 1080p Blu-ray AVC TrueHD 5.1 (ISO)





    Biệt Đội Bóng Ma 3: Nước mắt ủa Quỷ

    (Maaya Sakamoto, Ikkyu Juku, Ken'ichirô Matsuda)

    Ratings: 7.3/10 from 901 users

    Thông tin phim. Click HERE:


    [SPOILER]
    Nội dung phim
    <div style="padding-left: 30px"><div style="padding-left: 30px">Motoko gặp khủng hoảng tâm lý, cô thay hết người yêu này đến người yêu khác. Akira, một kỹ sư chuyên về các bộ phận thân thể nhân tạo là người yêu mới nhất của Motoko và có lẽ cũng là người hiểu cô nhất. Cho đến khi hàng loạt án mạng và tai nạn xảy ra, tất cả do kẻ tự xưng là Scylla, một chiến binh huyền thoại của quân phiến loạn được cho rằng đã chết gây ra, nhưng Motoko lại là người hiểu rõ hơn ai hết người đó không thể là Scylla thực sự.
    Review
    ​[/SPOILER]
    Trailer


    Media Info
    <div style="padding-left: 30px"><div style="padding-left: 30px">DISC INFO:

    Disc Title: GHOST_IN_THE_SHELL_ARISE_D3
    Disc Size: 23,097,890,642 bytes
    Protection: AACS
    BD-Java: No
    BDInfo: 0.5.8

    PLAYLIST REPORT:

    Name: 00001.MPLS
    Length: 0:58:21.039 (h:m:s.ms)
    Size: 13,260,091,392 bytes
    Total Bitrate: 30.30 Mbps

    VIDEO:

    Codec Bitrate Description
    ----- ------- -----------
    MPEG-4 AVC Video 20958 kbps 1080p / 23.976 fps / 16:9 / High Profile 4.1

    AUDIO:

    Codec Language Bitrate Description
    ----- -------- ------- -----------
    Dolby TrueHD Audio English 2260 kbps 5.1 / 48 kHz / 2260 kbps / 16-bit (AC3 Embedded: 5.1 / 48 kHz / 448 kbps / DN -3dB)
    Dolby TrueHD Audio Japanese 2521 kbps 5.1 / 48 kHz / 2521 kbps / 24-bit (AC3 Embedded: 5.1 / 48 kHz / 448 kbps / DN -9dB)

    SUBTITLES:

    Codec Language Bitrate Description
    ----- -------- ------- -----------
    Presentation Graphics English 40.327 kbps
    Presentation Graphics English 0.000 kbps

    FILES:

    Name Time In Length Size Total Bitrate
    ---- ------- ------ ---- -------------
    00043.M2TS 0:00:00.000 0:58:10.528 13,243,398,144 30,353
    00034.M2TS 0:58:10.528 0:00:10.010 16,306,176 13,032
    00035.M2TS 0:58:20.538 0:00:00.500 387,072 6,187​</div></div>
    Screenshots





    </div>
    </div>


    Download
    Dung lượng: 21.5 GiB (1 link)






    Link đã được ẩn: Bạn click nút Like để lấy link download nhé.
    Other encode




    Link đã được ẩn: Bạn click nút Like để lấy link download nhé.
    Phụ Đề
    http://subscene.com/subtitles/ghost-in-the-shell-arise-border-3-ghost-tears



    Các bản encode của phim
    <div style="padding-left: 30px"><div style="padding-left: 30px"><div style="padding-left: 30px">1080p:
    Ghost in the Shell Arise: Border 3 - Ghost Tears 2014 1080p BluRay AAC x264-Ozlem - {0.9 GiB} Download Folder

    Blu-ray:
    Ghost in the Shell Arise: Border 3 - Ghost Tears 2014 1080p Blu-ray AVC TrueHD 5.1 (ISO) - {21.5 GiB} Download Folder ​</div></div></div>

  5. #5
    Ngày tham gia
    Mar 2014
    Bài viết
    0
    Ghost in the Shell Arise: Border 4 - Ghost Stands Alone 2014 1080p Blu-ray AVC TrueHD 5.1 (ISO)





    Biệt Đội Bóng Ma 4: Thân Quỷ Lạc Loài

    (Maaya Sakamoto, Ikkyu Juku, Ken'ichirô Matsuda)

    Ratings: 7.4/10 from 589 users

    Thông tin phim. Click HERE:


    [SPOILER]
    Nội dung phim
    <div style="padding-left: 30px"><div style="padding-left: 30px">Phần thứ tư này diễn ra trong bối cảnh những dấu hiệu của việc tái thiết sau chiến tranh vào mùa đông năm 2028. Căng thẳng đang gia tăng ở New Port City khi các cuộc biểu tình được tổ chức liên quan đến lợi ích của các tập đoàn nước ngoài. Điều này dẫn đến một vụ nổ súng liên quan đến cảnh sát chống bạo động. Tất cả bắt đầu với một nhiễm trùng cyberbrain phát hành bởi những kẻ khủng bố Fire Starter.
    Review
    ​[/SPOILER]
    Trailer


    Media Info
    <div style="padding-left: 30px"><div style="padding-left: 30px">DISC INFO:

    Disc Title: GHOST_IN_THE_SHELL_ARISE_D4
    Disc Size: 24,245,375,718 bytes
    Protection: AACS
    BD-Java: No
    BDInfo: 0.5.8

    PLAYLIST REPORT:

    Name: 00001.MPLS
    Length: 0:58:53.071 (h:m:s.ms)
    Size: 14,844,862,464 bytes
    Total Bitrate: 33.61 Mbps

    VIDEO:

    Codec Bitrate Description
    ----- ------- -----------
    MPEG-4 AVC Video 23935 kbps 1080p / 23.976 fps / 16:9 / High Profile 4.1

    AUDIO:

    Codec Language Bitrate Description
    ----- -------- ------- -----------
    Dolby TrueHD Audio English 2368 kbps 5.1 / 48 kHz / 2368 kbps / 24-bit (AC3 Embedded: 5.1 / 48 kHz / 448 kbps / DN -3dB)
    Dolby TrueHD Audio Japanese 2726 kbps 5.1 / 48 kHz / 2726 kbps / 24-bit (AC3 Embedded: 5.1 / 48 kHz / 448 kbps / DN -9dB)

    SUBTITLES:

    Codec Language Bitrate Description
    ----- -------- ------- -----------
    Presentation Graphics English 41.642 kbps
    Presentation Graphics English 1.352 kbps

    FILES:

    Name Time In Length Size Total Bitrate
    ---- ------- ------ ---- -------------
    00043.M2TS 0:00:00.000 0:58:42.560 14,828,169,216 33,676
    00034.M2TS 0:58:42.560 0:00:10.010 16,306,176 13,032
    00035.M2TS 0:58:52.570 0:00:00.500 387,072 6,187​</div></div>
    Screenshots




    </div>
    </div>


    Download
    Dung lượng: 22.6 GiB (1 link)






    Link đã được ẩn: Bạn click nút Like để lấy link download nhé.
    Other encode




    Link đã được ẩn: Bạn click nút Like để lấy link download nhé.
    Phụ Đề
    http://subscene.com/subtitles/ghost-in-the-shell-arise-border-4-ghost-stands-alone



    Các bản encode của phim
    <div style="padding-left: 30px"><div style="padding-left: 30px"><div style="padding-left: 30px">1080p:
    Ghost in the Shell Arise: Border 4 - Ghost Stands Alone 2014 1080p BluRay DD5.1 x264-DON - {7.7 GiB} Download Folder

    720p:
    Ghost in the Shell Arise: Border 4 - Ghost Stands Alone 2014 720p BluRay DD5.1 x264-VietHD - {3.7 GiB} Download Folder

    Blu-ray:
    Ghost in the Shell Arise: Border 4 - Ghost Stands Alone 2014 1080p Blu-ray AVC TrueHD 5.1 (ISO) - {22.6 GiB} Download Folder ​</div></div></div>

 

 

Quyền viết bài

  • Bạn Không thể gửi Chủ đề mới
  • Bạn Không thể Gửi trả lời
  • Bạn Không thể Gửi file đính kèm
  • Bạn Không thể Sửa bài viết của mình
  •