Mr. Right 2015 1080p WEB-DL DD5.1 H264-FGT

Ngài Hoàn Hảo

<div style="text-align: center">phim.jpg" border="0" alt="" />​
{Phụ đề tiếng Việt}

(Anna Kendrick, Sam Rockwell, Tim Roth)

Ratings:6.3/10 from 9,382 users​</div>
Thông tin phim. Click HERE:



[SPOILER]Mr. Right 2015 - Một cô gái đem lòng yêu một anh chàng hoàn hảo. Nhưng điều cô không ngờ tới anh ta là một sát thủ chuyên nghiệp. Nhưng thay vì anh giết những người được chỉ định thì anh lại giết những người thuê anh. Cuộc sống sẽ ra sao đối với cô? Cô Sẽ quyết định thế nào?

English plot

A woman (Anna Kendrick) comes to a crossroad when she finds out that her new beau (Sam Rockwell) is a professional assassin who kills the people who hire him instead of the intended targets.



Video
ID : 1
Format : AVC
Format/Info : Advanced Video Codec
Format profile : High@L4
Format settings, CABAC : Yes
Format settings, ReFrames : 5 frames
Codec ID : V_MPEG4/ISO/AVC
Duration : 1h 35mn
Bit rate : 4 433 Kbps
Width : 1 916 pixels
Height : 796 pixels
Display aspect ratio : 2.40:1
Frame rate mode : Constant
Frame rate : 23.976 fps
Color space : YUV
Chroma subsampling : 4:2:0
Bit depth : 8 bits
Scan type : Progressive
Bits/(Pixel*Frame) : 0.121
Stream size : 2.95 GiB (90%)
Title : Mr.Right.2015.1080p.WEB-DL.DD5.1.H264-FGT
Language : English
Default : Yes
Forced : No
Color range : Limited
Color primaries : BT.709
Transfer characteristics : BT.709
Matrix coefficients : BT.709

Audio
ID : 2
Format : AC-3
Format/Info : Audio Coding 3
Mode extension : CM (complete main)
Format settings, Endianness : Big
Codec ID : A_AC3
Duration : 1h 35mn
Bit rate mode : Constant
Bit rate : 384 Kbps
Channel(s) : 6 channels
Channel positions : Front: L C R, Side: L R, LFE
Sampling rate : 48.0 KHz
Frame rate : 31.250 fps (1536 spf)
Compression mode : Lossy
Stream size : 262 MiB (8%)
Title : Mr.Right.2015.1080p.WEB-DL.DD5.1.H264-FGT
Language : English
Default : Yes
Forced : No

Text
ID : 3
Format : UTF-8
Codec ID : S_TEXT/UTF8
Codec ID/Info : UTF-8 Plain Text
Language : English
Default : Yes
Forced : No

Menu
00:00:00.000 : en:1
00:04:39.000 : en:2
00:08:27.000 : en:3
00:11:42.000 : en:4
00:15:50.000 : en:5
00:19:01.000 : en:6
00:23:37.000 : en:7
00:27:31.000 : en:8
00:33:53.000 : en:9
00:39:13.000 : en:10
00:44:01.000 : en:11
00:46:11.000 : en:12
00:51:58.000 : en:13
00:56:41.000 : en:14
00:59:25.000 : en:15
01:04:26.000 : en:16
01:10:18.000 : en:17
01:16:42.000 : en:18
01:22:25.000 : en:19
01:28:04.000 : en:20​






[/SPOILER]


FULL Trailer​

Phụ Đề
(đã có bản tiếng Việt)
https://subscene.com/subtitles/mr-right-2015-1​

Download
(Dung lượng: 3.3 GiB)




Link đã được ẩn: Bạn click nút Like để lấy link download nhé.



__________________________________________________ ________________

KHO PHiM HD, BluRay - Update hàng ngày | Xuân Bính thân 2016
Series/Collection | HOT/Bom Tân | Blu-ray ISO/Remux | Asia | USA - EU | Cô Trang | Sniper | Lông tiêng | Vietnamese
Incest | LGBT | ROCK/DemoWorld | Ghibli | New year/Christmas | Van Damme | Bruce Lee | Diep Van | Hoang Phi Hong
Star Wars | 007 | The Hunger Games | Mad Max | Fast and Furious
__________________________________________________ ________________​

View more random threads: