Kết quả 1 đến 2 của 2
  1. #1
    Ngày tham gia
    Jun 2014
    Bài viết
    0

    Batman v Superman: Dawn of Justice 2016 1080p 3D BluRay Half-SBS DD5.1 x264-SPRiNTER ~ Batman Đại Chiến Superman

    Batman v Superman: Dawn of Justice 2016 1080p 3D BluRay Half-SBS DD5.1 x264-SPRiNTER
    Batman Đại Chiến Superman: Ánh Sáng Công Lý
    (Ben Affleck, Henry Cavill, Kevin Costner, Gal Gadot)
    Ratings: 7,0 /10 from 307.029 users









    General
    Unique ID : 223884971032330235481707401493611547285 (0xA86EAD4E9F83C7EBB7DF85013E100A95)
    Complete name : C:\Users\hungdaita\Videos\TaiphimHD.com\Batman.v.S uperman.Dawn.of.Justice.2016.3D.1080p.BluRay.x264-SPRiNTER\Batman.v.Superman.Dawn.of.Justice.2016.3D .1080p.BluRay.x264-SPRiNTER.mkv
    Format : Matroska
    Format version : Version 4 / Version 2
    File size : 9.84 GiB
    Duration : 2h 31mn
    Overall bit rate : 9 288 Kbps
    Encoded date : UTC 2016-07-05 21:29:21
    Writing application : mkvmerge v8.3.0 ('Over the Horizon') 64bit
    Writing library : libebml v1.3.1 + libmatroska v1.4.2
    DURATION : 02:31:41.152000000
    NUMBER_OF_FRAMES : 284411
    NUMBER_OF_BYTES : 728092160
    _STATISTICS_WRITING_APP : mkvmerge v8.3.0 ('Over the Horizon') 64bit
    _STATISTICS_WRITING_DATE_UTC : 2016-07-05 21:29:21
    _STATISTICS_TAGS : BPS DURATION NUMBER_OF_FRAMES NUMBER_OF_BYTES

    Video
    ID : 1
    Format : AVC
    Format/Info : Advanced Video Codec
    Format profile : High@L4.1
    Format settings, CABAC : Yes
    Format settings, ReFrames : 5 frames
    Codec ID : V_MPEG4/ISO/AVC
    Duration : 2h 31mn
    Bit rate : 8 463 Kbps
    Nominal bit rate : 8 953 Kbps
    Width : 1 920 pixels
    Height : 800 pixels
    Display aspect ratio : 2.40:1
    Frame rate : 23.976 fps
    Color space : YUV
    Chroma subsampling : 4:2:0
    Bit depth : 8 bits
    Scan type : Progressive
    Bits/(Pixel*Frame) : 0.230
    Stream size : 8.97 GiB (91%)
    Writing library : x264 core 148 r2692 64f4e24
    Encoding settings : cabac=1 / ref=5 / deblock=1:0:0 / analyse=0x3:0x133 / me=umh / subme=7 / psy=1 / psy_rd=1.00:0.00 / mixed_ref=1 / me_range=16 / chroma_me=1 / trellis=1 / 8x8dct=1 / cqm=0 / deadzone=21,11 / fast_pskip=0 / chroma_qp_offset=-2 / threads=12 / lookahead_threads=2 / sliced_threads=0 / nr=0 / decimate=1 / interlaced=0 / bluray_compat=0 / constrained_intra=0 / bframes=3 / b_pyramid=2 / b_adapt=1 / b_bias=0 / direct=1 / weightb=1 / open_gop=0 / weightp=2 / keyint=250 / keyint_min=23 / scenecut=40 / intra_refresh=0 / rc_lookahead=40 / rc=2pass / mbtree=1 / bitrate=8953 / ratetol=1.0 / qcomp=0.60 / qpmin=0 / qpmax=69 / qpstep=4 / cplxblur=20.0 / qblur=0.5 / ip_ratio=1.40 / aq=1:1.00
    Language : English
    DURATION : 02:26:31.359000000
    NUMBER_OF_FRAMES : 210782
    NUMBER_OF_BYTES : 9835656555
    _STATISTICS_WRITING_APP : mkvmerge v8.3.0 ('Over the Horizon') 64bit
    _STATISTICS_WRITING_DATE_UTC : 2016-07-05 21:29:21
    _STATISTICS_TAGS : BPS DURATION NUMBER_OF_FRAMES NUMBER_OF_BYTES

    Audio
    ID : 2
    Format : AC-3
    Format/Info : Audio Coding 3
    Mode extension : CM (complete main)
    Codec ID : A_AC3
    Duration : 2h 31mn
    Bit rate mode : Constant
    Bit rate : 640 Kbps
    Channel(s) : 6 channels
    Channel positions : Front: L C R, Side: L R, LFE
    Sampling rate : 48.0 KHz
    Bit depth : 16 bits
    Compression mode : Lossy
    Stream size : 694 MiB (7%)
    Language : English

    Menu
    00:00:00.000 : en:00:00:00.000
    00:09:50.048 : en:00:09:50.048
    00:20:45.786 : en:00:20:45.786
    00:29:58.672 : en:00:29:58.672
    00:38:46.616 : en:00:38:46.616
    00:49:25.921 : en:00:49:25.921
    00:59:21.558 : en:00:59:21.558
    01:10:06.202 : en:01:10:06.202
    01:21:15.120 : en:01:21:15.120
    01:30:00.312 : en:01:30:00.312
    01:38:20.812 : en:01:38:20.812
    01:49:57.382 : en:01:49:57.382
    02:01:49.052 : en:02:01:49.052
    02:10:40.416 : en:02:10:40.416
    02:18:41.313 : en:02:18:41.313
    02:23:50.372 : en:02:23:50.372


    Nội dung bộ phim sẽ xoay quanh cuộc đối đầu có 1-0-2 của vị hiệp sĩ mạnh mẽ, đáng gờm nhất của thành phố Gotham với biểu tượng được tôn sùng nhất của thành phố Metropolis. Nguyên nhân của “cuộc chiến” này bắt nguồn từ việc họ đang lo lắng vì không thể kiểm soát được siêu anh hùng mới có sức mạnh thần thánh. Tuy nhiên, trong lúc họ “mải miết” chiến đấu với nhau thì có một mối đe dọa khác đã nổi lên và đẩy nhân loại vào tình thế nguy hiểm hơn bao giờ hết ...






    Full Screenshots:




    ☆☆☆ Gallery => Click Vào Link Để Xem Ảnh Lớn ☆☆☆





    ☆☆☆ Click Vào Link Để Xem Trailer ☆☆☆





    1Link 9,84 GB :






    Link đã được ẩn: Bạn click nút Like để lấy link download nhé.





    Link đã được ẩn: Bạn click nút Like để lấy link download nhé.





    Link đã được ẩn: Bạn click nút Like để lấy link download nhé.

    Phụ Đề Việt: {Đã Có ~ Thanks bác manhhung371 !}



    PHỤ ĐỀ VIỆT ~ Batman v Superman: Dawn of Justice 2016 All BluRay TayTO
    Subscene - Subtitles Vietnamese for Batman v Superman: Dawn of Justice 2016 cho bản 3D

    View more random threads:


  2. #2
    Ngày tham gia
    Nov 2015
    Bài viết
    30
    Cập nhật sub Việt cho bản 3D ~ Thank bác @manhhung371 !

 

 

Quyền viết bài

  • Bạn Không thể gửi Chủ đề mới
  • Bạn Không thể Gửi trả lời
  • Bạn Không thể Gửi file đính kèm
  • Bạn Không thể Sửa bài viết của mình
  •